Название: Пила: Игра на выживание
Оригинальное название: Saw
Год выхода: 2004
Производство: США / Evolution Entertainment, Saw Productions Inc., Twisted Pictures.
Жанр: ужасы, триллер, детектив
Продолжительность: 01:42:46
Режиссер: Джеймс Ван
В ролях: Ли Уоннелл, Кэри Элвис, Дэнни Гловер, Моника Поттер, Тобин Белл, Дина Мейер, Кен Люн, Майкл Эмерсон, Шоуни Смит, Бенито Мартинес, Майк Баттерс, Пол Гутрехт
Описание: Двое незнакомцев просыпаются в странном подвальном помещении. В центре помещения - труп мужчины с простреленной головой и оружием в ослабевшей руке. Они же прикованы к стенам цепями за щиколотки. Оба не знают, как там оказались.
Качество: BDRip 1080p-HEVC
Видео: HEVC/H.265, 1920x1080, ~14 Mbps, 10 bit
Аудио 01: AC3, 6 ch, 640 Kbps | Русский, Дублированный
Аудио 02: AC3, 6 ch, 640 Kbps | Английский, Оригинал
Субтитры: Русские (полные), английские (полные)

Релиз от: [email protected]

Mediainfo

x265 info: frame I: 1409, Avg QP:17.82 kb/s: 24785.39
x265 info: frame P: 25782, Avg QP:18.98 kb/s: 21001.28
x265 info: frame B: 120649, Avg QP:21.04 kb/s: 12334.11
x265 info: Weighted P-Frames: Y:16.3% UV:13.1%
x265 info: Weighted B-Frames: Y:15.3% UV:11.4%
x265 info: consecutive B-frames: 9.2% 3.4% 9.4% 6.7% 5.6% 50.3% 4.3% 2.1% 3.0% 0.8% 1.1% 3.5% 0.5%
x265 info:
encoded 147840 frames in 226230.87s (0.65 fps), 13964.26 kb/s, Avg QP:20.65
Общее
Уникальный идентификатор : 243348636538798784032965425497377564068 (0xB7133E1B44CBABAA7010024918CB65A4)
Полное имя : Пила - Игра на выживание [Director's Cut] (2004) BDRip 1080p [HEVC] 10 bit.mkv
Формат : Matroska
Версия формата : Version 4
Размер файла : 10,9 Гбайт
Продолжительность : 1 ч. 42 м.
Общий поток : 15,2 Мбит/сек
Название фильма : Пила: Игра на выживание [Director's Cut] (2004) [email protected]
Дата кодирования : UTC 2019-05-12 14:14:39
Программа кодирования : mkvmerge v30.1.0 ('Forever And More') 64-bit
Библиотека кодирования : libebml v1.3.6 + libmatroska v1.4.9
Обложка : Yes
Attachments : cover1.jpg
Видео
Идентификатор : 1
Формат : HEVC
Формат/Информация : High Efficiency Video Coding
Профиль формата : Main [email protected]@High
Идентификатор кодека : V_MPEGH/ISO/HEVC
Продолжительность : 1 ч. 42 м.
Битрейт : 14,0 Мбит/сек
Ширина : 1920 пикселей
Высота : 1080 пикселей
Соотношение сторон : 16:9
Режим частоты кадров : Постоянный
Частота кадров : 23,976 (24000/1001) кадра/сек
Цветовое пространство : YUV
Субдискретизация насыщенности : 4:2:0
Битовая глубина : 10 бит
Бит/(Пиксели*Кадры) : 0.281
Размер потока : 10,0 Гбайт (92%)
Заголовок : Пила: Игра на выживание [Director's Cut] (2004) [email protected]
Библиотека кодирования : x265 2.9+9-f74003e88622:[Windows][GCC 8.2.0][64 bit] 10bit
Настройки программы : cpuid=1049583 / frame-threads=5 / numa-pools=4 / wpp / no-pmode / no-pme / no-psnr / no-ssim / log-level=3 / input-csp=1 / input-res=1920x1080 / interlace=0 / total-frames=0 / level-idc=41 / high-tier=1 / uhd-bd=0 / ref=4 / allow-non-conformance / no-repeat-headers / annexb / no-aud / no-hrd / info / hash=0 / no-temporal-layers / open-gop / min-keyint=24 / keyint=240 / gop-lookahead=0 / bframes=12 / b-adapt=2 / b-pyramid / bframe-bias=0 / rc-lookahead=40 / lookahead-slices=6 / scenecut=40 / radl=0 / no-intra-refresh / ctu=32 / min-cu-size=8 / rect / no-amp / max-tu-size=32 / tu-inter-depth=4 / tu-intra-depth=4 / limit-tu=1 / rdoq-level=1 / dynamic-rd=0.00 / no-ssim-rd / signhide / no-tskip / nr-intra=0 / nr-inter=0 / no-constrained-intra / no-strong-intra-smoothing / max-merge=5 / limit-refs=3 / no-limit-modes / me=3 / subme=7 / merange=57 / temporal-mvp / weightp / weightb / no-analyze-src-pics / deblock=-3:-3 / no-sao / no-sao-non-deblock / rd=4 / no-early-skip / no-rskip / no-fast-intra / no-tskip-fast / no-cu-lossless / no-b-intra / no-splitrd-skip / rdpenalty=0 / psy-rd=2.00 / psy-rdoq=1.00 / no-rd-refine / no-lossless / cbqpoffs=0 / crqpoffs=0 / rc=crf / crf=21.0 / qcomp=0.60 / qpstep=4 / stats-write=0 / stats-read=0 / vbv-maxrate=50000 / vbv-bufsize=50000 / vbv-init=0.9 / crf-max=0.0 / crf-min=0.0 / ipratio=1.40 / pbratio=1.30 / aq-mode=3 / aq-strength=1.00 / no-cutree / zone-count=0 / no-strict-cbr / qg-size=32 / no-rc-grain / qpmax=69 / qpmin=0 / no-const-vbv / sar=1 / overscan=0 / videoformat=5 / range=0 / colorprim=1 / transfer=1 / colormatrix=1 / chromaloc=0 / display-window=0 / max-cll=0,0 / min-luma=0 / max-luma=1023 / log2-max-poc-lsb=8 / vui-timing-info / vui-hrd-info / slices=1 / no-opt-qp-pps / no-opt-ref-list-length-pps / no-multi-pass-opt-rps / scenecut-bias=0.05 / no-opt-cu-delta-qp / no-aq-motion / no-hdr / no-hdr-opt / no-dhdr10-opt / no-idr-recovery-sei / analysis-reuse-level=5 / scale-factor=0 / refine-intra=0 / refine-inter=0 / refine-mv=0 / no-limit-sao / ctu-info=0 / no-lowpass-dct / refine-mv-type=0 / copy-pic=1 / max-ausize-factor=1.0 / no-dynamic-refine / no-single-sei
Язык : English
Default : Да
Forced : Нет
Цветовой диапазон : Limited
Основные цвета : BT.709
Характеристики трансфера : BT.709
Коэффициенты матрицы : BT.709
Аудио #1
Идентификатор : 2
Формат : AC-3
Формат/Информация : Audio Coding 3
Коммерческое название : Dolby Digital
Идентификатор кодека : A_AC3
Продолжительность : 1 ч. 42 м.
Вид битрейта : Постоянный
Битрейт : 640 Кбит/сек
Каналы : 6 каналов
ChannelLayout : L R C LFE Ls Rs
Частота : 48,0 КГц
Частота кадров : 31,250 кадров/сек (1536 SPF)
Битовая глубина : 16 бит
Метод сжатия : С потерями
Размер потока : 470 Мбайт (4%)
Заголовок : Дубляж
Язык : Russian
Default : Да
Forced : Нет
Аудио #2
Идентификатор : 3
Формат : AC-3
Формат/Информация : Audio Coding 3
Коммерческое название : Dolby Digital
Идентификатор кодека : A_AC3
Продолжительность : 1 ч. 42 м.
Вид битрейта : Постоянный
Битрейт : 640 Кбит/сек
Каналы : 6 каналов
ChannelLayout : L R C LFE Ls Rs
Частота : 48,0 КГц
Частота кадров : 31,250 кадров/сек (1536 SPF)
Битовая глубина : 16 бит
Метод сжатия : С потерями
Размер потока : 470 Мбайт (4%)
Заголовок : Оригинал
Язык : English
Default : Нет
Forced : Нет
Текст #1
Идентификатор : 4
Формат : UTF-8
Идентификатор кодека : S_TEXT/UTF8
Идентификатор кодека/Информация : UTF-8 Plain Text
Продолжительность : 1 ч. 37 м.
Битрейт : 60 бит/сек
ElementCount : 771
Размер потока : 43,1 Кбайт (0%)
Заголовок : Rus Full
Язык : Russian
Default : Нет
Forced : Нет
Текст #2
Идентификатор : 5
Формат : UTF-8
Идентификатор кодека : S_TEXT/UTF8
Идентификатор кодека/Информация : UTF-8 Plain Text
Продолжительность : 1 ч. 37 м.
Битрейт : 41 бит/сек
ElementCount : 907
Размер потока : 29,9 Кбайт (0%)
Заголовок : Eng Full
Язык : English
Default : Нет
Forced : Нет
Меню
00:00:00.000 : :(01)00:00:00:000
00:06:30.390 : :(02)00:06:30:390
00:16:35.244 : :(03)00:16:35:244
00:24:12.659 : :(04)00:24:12:659
00:32:29.530 : :(05)00:32:29:530
00:41:44.043 : :(06)00:41:44:043
00:46:56.647 : :(07)00:46:56:647
00:54:56.209 : :(08)00:54:56:209
00:58:47.607 : :(09)00:58:47:607
01:02:49.056 : :(10)01:02:49:056
01:06:43.666 : :(11)01:06:43:666
01:10:49.578 : :(12)01:10:49:578
01:13:27.694 : :(13)01:13:27:694
01:17:53.960 : :(14)01:17:53:960
01:22:24.064 : :(15)01:22:24:064
01:29:38.998 : :(16)01:29:38:998
01:33:04.537 : :(17)01:33:04:537
01:38:48.505 : :(18)01:38:48:505

If you like the topic, please click share to help develop our site.

To download the file disable ad blocking, and reload the page.

disable adblock How to disable ad blocking?

Download by magnet link 10.95 GB Download Torrent

Login using:

Similar topics



   
Current time is: 17-Jul 06:24 :: All times are UTC + 3