Gigi D'Agostino / At Altromondo Part II (2004)
Жанр: Italodance
Носитель: CD
Страна-производитель диска (релиза): Italy
Год издания: 2004
Издатель (лейбл): NoiseMaker, Media Records
Номер по каталогу: COMP 198
Страна исполнителя (группы): Italy
Аудиокодек: FLAC (*.flac)
Тип рипа: tracks+.cue
Битрейт аудио: lossless
Продолжительность: 02:21:41
Источник: интернет (неизвестен)
Наличие сканов в содержимом раздачи: нет

Disc 1 (01:15:13)

Треклист:
01. Reality (Fabio MC) 7:15
02. Deep And Dark (La Tana Del Suono) 6:03
03. Grey Scale (Subnerve) 6:44
04. Drop The Deal (La Tana Del Suono) 4:33
05. The Party Goes On (Zicky) 4:02
06. Muovendo (La Tana Del Suono) 8:24
07. Mother (La Tana Del Suono) 4:39
08. Nascendo (La Tana Del Suono) 6:59
09. Rock The Sun (Sunset Mix) (Spolvet) 7:33
10. Mind (La Tana Del Suono) 2:45
11. Crescendo (La Tana Del Suono) 4:43
12. Amorelettronico (Gigi D'Agostino) 11:27

Содержание индексной карты (.CUE)

REM COMMENT "Rimini - Italy  Recorded and mastered @ Media Records' studio P) 2004 Media Records Srl C) 2004 Media Records Srl  Tracks 1-1, 1-2, 1-5, 1-6, 1-7, 1-8, 1-9, 1-10, 1-11, 2-1, 2-2, 2-6, 2-9 & 2-11 published by Media Songs Srl Track 1-3 published by 2Nd Future Music Publishing Track 1-4 published by Copyright Control Track 1-12 published by Media Songs Srl / Warner Bros Music Italy Track 2-3 published by Kleefeld / Hanseatic Track 2-4 published by Bmg Ricordi / Warner Bros Music Italy Srl / Media Song  Srl Track 2-5 published by Emi Music Publishing Italia Srl Track 2-7 published by Media Songs Srl / C  aleonte Srl Track 2-8 published by Casablanca Publishing / Edition Perky Park / Warner Chappell Track 2-10 published by Edizioni Acqua Azzurra  Errors: Track 1-9 'Rock The Sun (Sunset Mix)' is incorrectly listed as 'Sunset'. Tack 2-5 'Soleado': In the tracklist on the back cover the artist 'Molly' is misprinted as 'Moll'. The tracklist in the booklet shows the correct name. Track 2-8 'Deeper (Gigi D'Agostino V..."PERFORMER "Gigi D'Agostino"TITLE "At Altromondo Part II"CATALOG 8019256010000REM DATE 2004REM DISCNUMBER 1REM TOTALDISCS 2REM GENRE "Electronica & Dance"FILE "01. DJ Fabio MC - Reality.flac" WAVE  TRACK 01 AUDIO    PERFORMER "Fabio MC , "    TITLE "DJ Fabio MC - Reality"    INDEX 01 00:00:00FILE "02. La Tana Del Suono - Deep and Dark.flac" WAVE  TRACK 02 AUDIO    PERFORMER "La Tana Del Suono , "    TITLE "La Tana Del Suono - Deep and Dark"    INDEX 01 00:00:00FILE "03. Subnerve - Grey Scale.flac" WAVE  TRACK 03 AUDIO    PERFORMER "Subnerve , "    TITLE "Subnerve - Grey Scale"    INDEX 01 00:00:00FILE "04. La Tana Del Suono - Drop the deal.flac" WAVE  TRACK 04 AUDIO    PERFORMER "La Tana Del Suono , "    TITLE "La Tana Del Suono - Drop the deal"    INDEX 01 00:00:00FILE "05. Zicky - The Party Goes On.flac" WAVE  TRACK 05 AUDIO    PERFORMER "Zicky , "    TITLE "Zicky - The Party Goes On"    INDEX 01 00:00:00FILE "06. La Tana Del Suono - Muovendo.flac" WAVE  TRACK 06 AUDIO    PERFORMER "La Tana Del Suono , "    TITLE "La Tana Del Suono - Muovendo"    INDEX 01 00:00:00FILE "07. La Tana Del Suono - Mother.flac" WAVE  TRACK 07 AUDIO    PERFORMER "La Tana Del Suono , "    TITLE "La Tana Del Suono - Mother"    INDEX 01 00:00:00FILE "08. La Tana Del Suono - Nascendo.flac" WAVE  TRACK 08 AUDIO    PERFORMER "La Tana Del Suono , "    TITLE "La Tana Del Suono - Nascendo"    INDEX 01 00:00:00FILE "09. Spolvet - Rock The Sun (Sunset Mix).flac" WAVE  TRACK 09 AUDIO    PERFORMER "Spolvet , "    TITLE "Spolvet - Rock The Sun (Sunset Mix)"    INDEX 01 00:00:00FILE "10. La Tana Del Suono - Mind.flac" WAVE  TRACK 10 AUDIO    PERFORMER "La Tana Del Suono , "    TITLE "La Tana Del Suono - Mind"    INDEX 01 00:00:00FILE "11. La Tana Del Suono - Crescendo.flac" WAVE  TRACK 11 AUDIO    PERFORMER "La Tana Del Suono , "    TITLE "La Tana Del Suono - Crescendo"    INDEX 01 00:00:00FILE "12. Gigi D'Agostino - Amorelettronico.flac" WAVE  TRACK 12 AUDIO    PERFORMER "Gigi D'Agostino , "    TITLE "Gigi D'Agostino - Amorelettronico"    INDEX 01 00:00:00

Лог проверки качества:

AUDIOCHECKER v2.0 beta (build 457) - by Dester - [email protected]~~~~~~~~~~~~~~~~~~~~~~~~~~~~~~~~~~-=== DO NOT EDIT THIS FILE! ===-
Path: ...\2004 - At Altromondo Part II (disc 1 of 2) (IT - NoiseMaker;Media Records COMP 198 - 2004)
01 -=- 01. DJ Fabio MC - Reality.flac -=- CDDA (100%)02 -=- 02. La Tana Del Suono - Deep and Dark.flac -=- CDDA (100%)03 -=- 03. Subnerve - Grey Scale.flac -=- CDDA (100%)04 -=- 04. La Tana Del Suono - Drop the deal.flac -=- CDDA (100%)05 -=- 05. Zicky - The Party Goes On.flac -=- CDDA (100%)06 -=- 06. La Tana Del Suono - Muovendo.flac -=- CDDA (100%)07 -=- 07. La Tana Del Suono - Mother.flac -=- CDDA (100%)08 -=- 08. La Tana Del Suono - Nascendo.flac -=- CDDA (100%)09 -=- 09. Spolvet - Rock The Sun (Sunset Mix).flac -=- CDDA (100%)10 -=- 10. La Tana Del Suono - Mind.flac -=- CDDA (100%)11 -=- 11. La Tana Del Suono - Crescendo.flac -=- CDDA (100%)12 -=- 12. Gigi D'Agostino - Amorelettronico.flac -=- CDDA (100%)
Summary 100,00% CDDA
28998292

Disc 2 (01:06:28)

Треклист:
01. Sonata (Gigi D'Agostino) 4:20
02. Paura E Nobiltà (Gigi D'Agostino) 5:22
03. Drifting Sideways (Gigi D'Agostino Viaggio Mix) (De/Vision) 5:23
04. Complex (Gigi D'Agostino) 7:12
05. Soleado (Gigi & Molly) 6:43
06. Once Upon A Time (Elettrogang) 4:53
07. Gigi's Goodnight (Gigi D'Agostino & Pandolfi) 7:20
08. Deeper (Gigi D'Agostino Viaggio Mix) (Soulkeeper) 5:43
09. Silence (Gigi D'Agostino) 10:07
10. Con Il Nastro Rosa (Gigi & Molly) 4:44
11. C'Era Una Volta (Beldemandis) 4:35

Содержание индексной карты (.CUE)

REM COMMENT "Rimini - Italy  Recorded and mastered @ Media Records' studio P) 2004 Media Records Srl C) 2004 Media Records Srl  Tracks 1-1, 1-2, 1-5, 1-6, 1-7, 1-8, 1-9, 1-10, 1-11, 2-1, 2-2, 2-6, 2-9 & 2-11 published by Media Songs Srl Track 1-3 published by 2Nd Future Music Publishing Track 1-4 published by Copyright Control Track 1-12 published by Media Songs Srl / Warner Bros Music Italy Track 2-3 published by Kleefeld / Hanseatic Track 2-4 published by Bmg Ricordi / Warner Bros Music Italy Srl / Media Song  Srl Track 2-5 published by Emi Music Publishing Italia Srl Track 2-7 published by Media Songs Srl / C  aleonte Srl Track 2-8 published by Casablanca Publishing / Edition Perky Park / Warner Chappell Track 2-10 published by Edizioni Acqua Azzurra  Errors: Track 1-9 'Rock The Sun (Sunset Mix)' is incorrectly listed as 'Sunset'. Tack 2-5 'Soleado': In the tracklist on the back cover the artist 'Molly' is misprinted as 'Moll'. The tracklist in the booklet shows the correct name. Track 2-8 'Deeper (Gigi D'Agostino V..."PERFORMER "Gigi D'Agostino"TITLE "At Altromondo Part II"CATALOG 8019256010000REM DATE 2004REM DISCNUMBER 2REM TOTALDISCS 2REM GENRE "Electronica/Dance"FILE "01. Gigi D'Agostino - Sonata.flac" WAVE  TRACK 01 AUDIO    PERFORMER "Gigi D'Agostino , "    TITLE "Gigi D'Agostino - Sonata"    INDEX 01 00:00:00FILE "02. Gigi D'Agostino - Paura E Nobilta'.flac" WAVE  TRACK 02 AUDIO    PERFORMER "Gigi D'Agostino , "    TITLE "Gigi D'Agostino - Paura E Nobilta'"    INDEX 01 00:00:00FILE "03. De Vision - Drifting Sideways (Gigi D'Agostino Viaggio Mix).flac" WAVE  TRACK 03 AUDIO    PERFORMER "De / Vision , "    TITLE "De Vision - Drifting Sideways (Gigi D'Agostino Viaggio Mix)"    INDEX 01 00:00:00FILE "04. Gigi D'Agostino - Complex.flac" WAVE  TRACK 04 AUDIO    PERFORMER "Gigi D'Agostino , "    TITLE "Gigi D'Agostino - Complex"    INDEX 01 00:00:00FILE "05. Gigi & Molly - Soleado.flac" WAVE  TRACK 05 AUDIO    PERFORMER "Gigi & Molly , "    TITLE "Gigi & Molly - Soleado"    INDEX 01 00:00:00FILE "06. Elettrogang - Once Upon A Time.flac" WAVE  TRACK 06 AUDIO    PERFORMER "Elettrogang , "    TITLE "Elettrogang - Once Upon A Time"    INDEX 01 00:00:00FILE "07. Gigi D'Agostino & Pandolfi - Gigi's Goodnight.flac" WAVE  TRACK 07 AUDIO    PERFORMER "Gigi D'Agostino & Pandolfi , "    TITLE "Gigi D'Agostino & Pandolfi - Gigi's Goodnight"    INDEX 01 00:00:00FILE "08. Soulkeeper - Deeper (Gigi D'Agostino Viaggio Mix).flac" WAVE  TRACK 08 AUDIO    PERFORMER "Soulkeeper , "    TITLE "Soulkeeper - Deeper (Gigi D'Agostino Viaggio Mix)"    INDEX 01 00:00:00FILE "09. Gigi D'Agostino - Silence.flac" WAVE  TRACK 09 AUDIO    PERFORMER "Gigi D'Agostino , "    TITLE "Gigi D'Agostino - Silence"    INDEX 01 00:00:00FILE "10. Gigi & Molly - Con Il Nastro Rosa.flac" WAVE  TRACK 10 AUDIO    PERFORMER "Gigi & Molly , "    TITLE "Gigi & Molly - Con Il Nastro Rosa"    INDEX 01 00:00:00FILE "11. Beldemandis - C'Era Una Volta.flac" WAVE  TRACK 11 AUDIO    PERFORMER "Beldemandis , "    TITLE "Beldemandis - C'Era Una Volta"    INDEX 01 00:00:00

Лог проверки качества:

AUDIOCHECKER v2.0 beta (build 457) - by Dester - [email protected]~~~~~~~~~~~~~~~~~~~~~~~~~~~~~~~~~~-=== DO NOT EDIT THIS FILE! ===-
Path: ...\2004 - At Altromondo Part II (disc 2 of 2) (IT - NoiseMaker;Media Records COMP 198 - 2004)
01 -=- 01. Gigi D'Agostino - Sonata.flac -=- CDDA (99%)02 -=- 02. Gigi D'Agostino - Paura E Nobilta'.flac -=- CDDA (100%)03 -=- 03. De Vision - Drifting Sideways (Gigi D'Agostino Viaggio Mix).flac -=- CDDA (100%)04 -=- 04. Gigi D'Agostino - Complex.flac -=- CDDA (100%)05 -=- 05. Gigi & Molly - Soleado.flac -=- CDDA (100%)06 -=- 06. Elettrogang - Once Upon A Time.flac -=- CDDA (100%)07 -=- 07. Gigi D'Agostino & Pandolfi - Gigi's Goodnight.flac -=- CDDA (100%)08 -=- 08. Soulkeeper - Deeper (Gigi D'Agostino Viaggio Mix).flac -=- CDDA (100%)09 -=- 09. Gigi D'Agostino - Silence.flac -=- CDDA (100%)10 -=- 10. Gigi & Molly - Con Il Nastro Rosa.flac -=- CDDA (99%)11 -=- 11. Beldemandis - C'Era Una Volta.flac -=- CDDA (100%)
Summary 99,82% CDDA
17697220

If you like the topic, please click share to help develop our site.

To download the file disable ad blocking, and reload the page.

disable adblock How to disable ad blocking?

Download by magnet link 906 MB Download Torrent

Login using:

Similar topics



   
Current time is: 19-Jul 23:41 :: All times are UTC + 3