Silver Convention / Silver Convention
Жанр: Disco
Носитель: CD
Страна-производитель диска (релиза): UK
Год издания: 2014
Издатель (лейбл): Big Break Records
Номер по каталогу: CDBBR0266
Аудиокодек: FLAC (*.flac)
Тип рипа: tracks+.cue
Продолжительность: 00:56:36
Источник: локальная сеть
Наличие сканов в содержимом раздачи: да
Треклист:
1. SAVE ME
2. I LIKE IT
3. FLY, ROBIN, FLY
4. TIGER BABY
5. SON OF A GUN
6. ALWAYS ANOTHER GIRL
7. CHAINS OF LOVE
8. HEART OF STONE
9. PLEASE DON'T CHANGE THE CHORDS OF THIS SONG
BONUS TRACKS
10. FLY, ROBIN, FLY (12” Version)
11. TIGER BABY (12” Version)

Лог создания рипа

Exact Audio Copy V1.0 beta 3 from 29. August 2011
EAC extraction logfile from 8. June 2014, 10:16
Silver Convention / Save Me
Used drive : TSSTcorp CDDVDW Adapter: 0 ID: 0
Read mode : SecureUtilize accurate stream : YesDefeat audio cache : YesMake use of C2 pointers : No
Read offset correction : 6Overread into Lead-In and Lead-Out : NoFill up missing offset samples with silence : YesDelete leading and trailing silent blocks : NoNull samples used in CRC calculations : YesUsed interface : Native Win32 interface for Win NT & 2000Gap handling : Appended to previous track
Used output format : User Defined EncoderSelected bitrate : 128 kBit/sQuality : HighAdd ID3 tag : NoCommand line compressor : C:\Program Files (x86)\Exact Audio Copy\Flac\flac.exeAdditional command line options : -8 -V -T "ARTIST=%artist%" -T "TITLE=%title%" -T "ALBUM=%albumtitle%" -T "DATE=%year%" -T "TRACKNUMBER=%tracknr%" -T "TOTALTRACKS=%numtracks%" -T "GENRE=%genre%" -T "ALBUMARTIST=%albumartist%" -T "ALBUM ARTIST=%albumartist%" -T "COMMENT=EAC Secure Mode, Test & Copy, AccurateRip, FLAC -8" %source%
TOC of the extracted CD
Track | Start | Length | Start sector | End sector --------------------------------------------------------- 1 | 0:00.00 | 4:16.30 | 0 | 19229 2 | 4:16.30 | 4:56.18 | 19230 | 41447 3 | 9:12.48 | 5:32.67 | 41448 | 66414 4 | 14:45.40 | 4:14.50 | 66415 | 85514 5 | 19:00.15 | 3:54.23 | 85515 | 103087 6 | 22:54.38 | 3:59.11 | 103088 | 121023 7 | 26:53.49 | 4:07.73 | 121024 | 139621 8 | 31:01.47 | 4:06.25 | 139622 | 158096 9 | 35:07.72 | 4:59.09 | 158097 | 180530 10 | 40:07.06 | 7:44.61 | 180531 | 215391 11 | 47:51.67 | 8:49.39 | 215392 | 255105
Track 1
Filename C:\AddisistheGodFlac\01 - Save Me.wav
Pre-gap length 0:00:02.00
Peak level 96.6 % Extraction speed 2.7 X Track quality 100.0 % Test CRC ABAEC73B Copy CRC ABAEC73B Accurately ripped (confidence 1) [28C79334] (AR v2) Copy OK
Track 2
Filename C:\AddisistheGodFlac\02 - I Like It.wav
Peak level 96.6 % Extraction speed 3.1 X Track quality 100.0 % Test CRC E4D400BE Copy CRC E4D400BE Accurately ripped (confidence 1) [B637BA4E] (AR v2) Copy OK
Track 3
Filename C:\AddisistheGodFlac\03 - Fly Robin Fly.wav
Peak level 96.6 % Extraction speed 3.4 X Track quality 100.0 % Test CRC 9722AA2E Copy CRC 9722AA2E Accurately ripped (confidence 1) [B3CE45C2] (AR v2) Copy OK
Track 4
Filename C:\AddisistheGodFlac\04 - Tiger Baby.wav
Peak level 96.6 % Extraction speed 3.6 X Track quality 100.0 % Test CRC 873D9DF1 Copy CRC 873D9DF1 Accurately ripped (confidence 1) [0A52DECE] (AR v2) Copy OK
Track 5
Filename C:\AddisistheGodFlac\05 - Son Of A Gun.wav
Peak level 96.6 % Extraction speed 3.8 X Track quality 100.0 % Test CRC 273A5102 Copy CRC 273A5102 Accurately ripped (confidence 1) [CB12D63B] (AR v2) Copy OK
Track 6
Filename C:\AddisistheGodFlac\06 - Always Another Girl.wav
Peak level 96.6 % Extraction speed 4.0 X Track quality 100.0 % Test CRC F240FC09 Copy CRC F240FC09 Accurately ripped (confidence 1) [DF9512E4] (AR v2) Copy OK
Track 7
Filename C:\AddisistheGodFlac\07 - Chains Of Love.wav
Peak level 96.6 % Extraction speed 3.4 X Track quality 99.9 % Test CRC EB82337A Copy CRC EB82337A Accurately ripped (confidence 1) [543AC17E] (AR v2) Copy OK
Track 8
Filename C:\AddisistheGodFlac\08 - Heart Of Stone.wav
Peak level 96.6 % Extraction speed 3.5 X Track quality 99.9 % Test CRC F6AE9581 Copy CRC F6AE9581 Accurately ripped (confidence 1) [EB29AA7D] (AR v2) Copy OK
Track 9
Filename C:\AddisistheGodFlac\09 - Please Don't Change The Chords Of This Song.wav
Peak level 96.6 % Extraction speed 3.9 X Track quality 99.9 % Test CRC 5BC422CE Copy CRC 5BC422CE Accurately ripped (confidence 1) [DE87117E] (AR v2) Copy OK
Track 10
Filename C:\AddisistheGodFlac\10 - Fly Robin Fly (12' Version).wav
Pre-gap length 0:00:03.36
Peak level 96.6 % Extraction speed 4.5 X Track quality 99.9 % Test CRC A4E4930A Copy CRC A4E4930A Accurately ripped (confidence 1) [652FE659] (AR v2) Copy OK
Track 11
Filename C:\AddisistheGodFlac\11 - Tiger Baby (12' Version).wav
Pre-gap length 0:00:01.46
Peak level 96.6 % Extraction speed 4.9 X Track quality 99.9 % Test CRC 9F72DDFB Copy CRC 9F72DDFB Accurately ripped (confidence 1) [F231ADF4] (AR v2) Copy OK
All tracks accurately ripped
No errors occurred
End of status report
==== Log checksum 0C4A38F8FD7BB988B79D1B9F98136E64FB1ABAB5CA13FE6E211F5C0C7F5B440E ====

Содержание индексной карты (.CUE)

REM GENRE SoulREM DATE 1975REM DISCID 9D0D490BREM COMMENT "ExactAudioCopy v1.0b3"PERFORMER "Silver Convention"TITLE "Save Me"FILE "01 - Save Me.wav" WAVE  TRACK 01 AUDIO    TITLE "Save Me"    PERFORMER "Silver Convention"    INDEX 01 00:00:00FILE "02 - I Like It.wav" WAVE  TRACK 02 AUDIO    TITLE "I Like It"    PERFORMER "Silver Convention"    INDEX 01 00:00:00FILE "03 - Fly Robin Fly.wav" WAVE  TRACK 03 AUDIO    TITLE "Fly Robin Fly"    PERFORMER "Silver Convention"    INDEX 01 00:00:00FILE "04 - Tiger Baby.wav" WAVE  TRACK 04 AUDIO    TITLE "Tiger Baby"    PERFORMER "Silver Convention"    INDEX 01 00:00:00FILE "05 - Son Of A Gun.wav" WAVE  TRACK 05 AUDIO    TITLE "Son Of A Gun"    PERFORMER "Silver Convention"    INDEX 01 00:00:00FILE "06 - Always Another Girl.wav" WAVE  TRACK 06 AUDIO    TITLE "Always Another Girl"    PERFORMER "Silver Convention"    INDEX 01 00:00:00FILE "07 - Chains Of Love.wav" WAVE  TRACK 07 AUDIO    TITLE "Chains Of Love"    PERFORMER "Silver Convention"    INDEX 01 00:00:00FILE "08 - Heart Of Stone.wav" WAVE  TRACK 08 AUDIO    TITLE "Heart Of Stone"    PERFORMER "Silver Convention"    INDEX 01 00:00:00FILE "09 - Please Don't Change The Chords Of This Song.wav" WAVE  TRACK 09 AUDIO    TITLE "Please Don't Change The Chords Of This Song"    PERFORMER "Silver Convention"    INDEX 01 00:00:00  TRACK 10 AUDIO    TITLE "Fly Robin Fly (12' Version)"    PERFORMER "Silver Convention"    INDEX 00 04:55:48FILE "10 - Fly Robin Fly (12' Version).wav" WAVE    INDEX 01 00:00:00  TRACK 11 AUDIO    TITLE "Tiger Baby (12' Version)"    PERFORMER "Silver Convention"    INDEX 00 07:43:15FILE "11 - Tiger Baby (12' Version).wav" WAVE    INDEX 01 00:00:00

Dr log

foobar2000 1.3.17 / Dynamic Range Meter 1.1.1log date: 2019-05-12 16:44:32
--------------------------------------------------------------------------------Analyzed: Silver Convention / Save Me--------------------------------------------------------------------------------
DR Peak RMS Duration Track--------------------------------------------------------------------------------DR12 -0.30 dB -13.07 dB 4:16 01-Save MeDR12 -0.30 dB -13.30 dB 4:56 02-I Like ItDR12 -0.30 dB -13.40 dB 5:33 03-Fly Robin FlyDR11 -0.30 dB -13.10 dB 4:15 04-Tiger BabyDR12 -0.30 dB -13.89 dB 3:54 05-Son Of A GunDR12 -0.30 dB -13.27 dB 3:59 06-Always Another GirlDR12 -0.30 dB -13.86 dB 4:08 07-Chains Of LoveDR12 -0.30 dB -14.22 dB 4:06 08-Heart Of StoneDR13 -0.30 dB -16.05 dB 4:59 09-Please Don't Change The Chords Of This SongDR12 -0.30 dB -13.26 dB 7:45 10-Fly Robin Fly (12' Version)DR12 -0.30 dB -13.22 dB 8:50 11-Tiger Baby (12' Version)--------------------------------------------------------------------------------
Number of tracks: 11Official DR value: DR12
Samplerate: 44100 HzChannels: 2Bits per sample: 16Bitrate: 927 kbpsCodec: FLAC================================================================================

If you like the topic, please click share to help develop our site.

To download the file disable ad blocking, and reload the page.

disable adblock How to disable ad blocking?

Download by magnet link 412 MB Download Torrent

Login using:

Similar topics



   
Current time is: 17-Jul 05:57 :: All times are UTC + 3