Sammy Hagar / Classic Masters
Жанр: hard rock
Носитель: CD
Страна-производитель диска (релиза): Japan
Год издания: 2002
Издатель (лейбл): Capitol
Номер по каталогу: TOCP 54311
Страна исполнителя (группы): USA
Аудиокодек: FLAC (*.flac)
Тип рипа: image+.cue
Продолжительность: 52:01
Источник: собственный рип
Наличие сканов в содержимом раздачи: да
Треклист:
1 Red
2 (Sittin' On) The Dock Of The Bay
3 I've Done Everything For You
4 Rock 'N' Roll Weekend
5 Crusin' & Boozin'
6 Turn Up The Music
7 Reckless
8 Trans Am (Highway Wonderland)
9 Love Or Money
10 This Planet's On Fire (Burn In Hell)
11 Plain Jane
12 Bad Reputation
13 Bad Motor Scooter (Live)
14 You Make Me Crazy

Лог создания рипа

X Lossless Decoder version 20160920 (149.2)
XLD extraction logfile from 2019-05-12 10:54:42 +0300
Sammy Hagar / Classic Masters
Used drive : Apple SuperDrive (revision )Media type : Pressed CD
Ripper mode : XLD Secure RipperDisable audio cache : OK for the drive with a cache less than 1375KiBMake use of C2 pointers : NORead offset correction : 48Max retry count : 20Gap status : Analyzed, Appended
TOC of the extracted CD Track | Start | Length | Start sector | End sector --------------------------------------------------------- 1 | 00:00:00 | 04:13:32 | 0 | 19006 2 | 04:13:32 | 03:02:35 | 19007 | 32691 3 | 07:15:67 | 03:03:50 | 32692 | 46466 4 | 10:19:42 | 03:06:08 | 46467 | 60424 5 | 13:25:50 | 03:06:50 | 60425 | 74424 6 | 16:32:25 | 03:35:37 | 74425 | 90586 7 | 20:07:62 | 03:34:00 | 90587 | 106636 8 | 23:41:62 | 03:30:68 | 106637 | 122454 9 | 27:12:55 | 03:00:65 | 122455 | 136019 10 | 30:13:45 | 04:36:00 | 136020 | 156719 11 | 34:49:45 | 03:47:72 | 156720 | 173816 12 | 38:37:42 | 03:31:55 | 173817 | 189696 13 | 42:09:22 | 07:06:25 | 189697 | 221671 14 | 49:15:47 | 02:45:10 | 221672 | 234056
List of alternate offset correction values # | Absolute | Relative | Confidence ------------------------------------------ 1 | 66 | 18 | 12
AccurateRip Summary (DiscID: 001966a6-011149a6-ba0c300e) Track 01 : OK (v2, confidence 3/62) Track 02 : OK (v2, confidence 3/62) Track 03 : OK (v2, confidence 3/62) Track 04 : OK (v2, confidence 3/62) Track 05 : OK (v2, confidence 3/62) Track 06 : OK (v2, confidence 3/62) Track 07 : OK (v2, confidence 3/61) Track 08 : OK (v2, confidence 3/62) Track 09 : OK (v2, confidence 3/62) Track 10 : OK (v2, confidence 3/62) Track 11 : OK (v2, confidence 3/62) Track 12 : OK (v2, confidence 3/62) Track 13 : OK (v2, confidence 3/60) Track 14 : OK (v2, confidence 3/60) ->All tracks accurately ripped.
All Tracks Filename : /Users/dima/Desktop/Classic Masters.flac Album gain : -11.69 dB Peak : 0.988495 CRC32 hash (test run) : 89A14D79 CRC32 hash : 89A14D79 CRC32 hash (skip zero) : BECC178E Statistics Read error : 0 Jitter error (maybe fixed) : 0 Retry sector count : 0 Damaged sector count : 0
Track 01 Pre-gap length : 00:02:00
Track gain : -11.37 dB Peak : 0.980286 CRC32 hash (test run) : 561FD0A4 CRC32 hash : 561FD0A4 CRC32 hash (skip zero) : E83E352E AccurateRip v1 signature : 50C50118 AccurateRip v2 signature : 020249E1 ->Accurately ripped (v2, confidence 3/62) Statistics Read error : 0 Jitter error (maybe fixed) : 0 Retry sector count : 0 Damaged sector count : 0
Track 02 Pre-gap length : 00:01:12
Track gain : -9.47 dB Peak : 0.968140 CRC32 hash (test run) : 61EA5780 CRC32 hash : 61EA5780 CRC32 hash (skip zero) : D4907AE3 AccurateRip v1 signature : 298007EB AccurateRip v2 signature : 9A6F0239 ->Accurately ripped (v2, confidence 3/62) Statistics Read error : 0 Jitter error (maybe fixed) : 0 Retry sector count : 0 Damaged sector count : 0
Track 03 Pre-gap length : 00:00:47
Track gain : -11.60 dB Peak : 0.966278 CRC32 hash (test run) : B4884BA3 CRC32 hash : B4884BA3 CRC32 hash (skip zero) : 93D3764C AccurateRip v1 signature : 046792BC AccurateRip v2 signature : 3F98F9AB ->Accurately ripped (v2, confidence 3/62) Statistics Read error : 0 Jitter error (maybe fixed) : 0 Retry sector count : 0 Damaged sector count : 0
Track 04 Pre-gap length : 00:01:72
Track gain : -11.06 dB Peak : 0.981720 CRC32 hash (test run) : 54B3C950 CRC32 hash : 54B3C950 CRC32 hash (skip zero) : BE8C2F0B AccurateRip v1 signature : 9B6C03A1 AccurateRip v2 signature : 2B93D742 ->Accurately ripped (v2, confidence 3/62) Statistics Read error : 0 Jitter error (maybe fixed) : 0 Retry sector count : 0 Damaged sector count : 0
Track 05 Pre-gap length : 00:00:15
Track gain : -10.73 dB Peak : 0.960968 CRC32 hash (test run) : 626D3C43 CRC32 hash : 626D3C43 CRC32 hash (skip zero) : C8C1F77C AccurateRip v1 signature : 21C3F914 AccurateRip v2 signature : 2BE74814 ->Accurately ripped (v2, confidence 3/62) Statistics Read error : 0 Jitter error (maybe fixed) : 0 Retry sector count : 0 Damaged sector count : 0
Track 06 Pre-gap length : 00:00:10
Track gain : -12.28 dB Peak : 0.962341 CRC32 hash (test run) : 348DB314 CRC32 hash : 348DB314 CRC32 hash (skip zero) : 2A7C3195 AccurateRip v1 signature : 9C23A9A5 AccurateRip v2 signature : 2DCE009D ->Accurately ripped (v2, confidence 3/62) Statistics Read error : 0 Jitter error (maybe fixed) : 0 Retry sector count : 0 Damaged sector count : 0
Track 07 Pre-gap length : 00:01:27
Track gain : -11.52 dB Peak : 0.974396 CRC32 hash (test run) : CA9D4998 CRC32 hash : CA9D4998 CRC32 hash (skip zero) : 3121957E AccurateRip v1 signature : 4ECDF84C AccurateRip v2 signature : 460CBFE1 ->Accurately ripped (v2, confidence 3/61) Statistics Read error : 0 Jitter error (maybe fixed) : 0 Retry sector count : 0 Damaged sector count : 0
Track 08 Pre-gap length : 00:02:07
Track gain : -13.40 dB Peak : 0.988495 CRC32 hash (test run) : B4B0A5C2 CRC32 hash : B4B0A5C2 CRC32 hash (skip zero) : 9E48A85D AccurateRip v1 signature : 98B07288 AccurateRip v2 signature : AB15390D ->Accurately ripped (v2, confidence 3/62) Statistics Read error : 0 Jitter error (maybe fixed) : 0 Retry sector count : 0 Damaged sector count : 0
Track 09 Pre-gap length : 00:01:58
Track gain : -12.07 dB Peak : 0.976715 CRC32 hash (test run) : 0925FA93 CRC32 hash : 0925FA93 CRC32 hash (skip zero) : CFF3C11B AccurateRip v1 signature : 89154B2F AccurateRip v2 signature : 862EEAF4 ->Accurately ripped (v2, confidence 3/62) Statistics Read error : 0 Jitter error (maybe fixed) : 0 Retry sector count : 0 Damaged sector count : 0
Track 10 Pre-gap length : 00:00:55
Track gain : -11.27 dB Peak : 0.975220 CRC32 hash (test run) : 47E28DC3 CRC32 hash : 47E28DC3 CRC32 hash (skip zero) : 2229E9F8 AccurateRip v1 signature : 01410AD3 AccurateRip v2 signature : 40A83048 ->Accurately ripped (v2, confidence 3/62) Statistics Read error : 0 Jitter error (maybe fixed) : 0 Retry sector count : 0 Damaged sector count : 0
Track 11 Pre-gap length : 00:02:10
Track gain : -11.13 dB Peak : 0.980164 CRC32 hash (test run) : 41ECEC5E CRC32 hash : 41ECEC5E CRC32 hash (skip zero) : F34C3E0F AccurateRip v1 signature : DCE2DA5A AccurateRip v2 signature : CAF10869 ->Accurately ripped (v2, confidence 3/62) Statistics Read error : 0 Jitter error (maybe fixed) : 0 Retry sector count : 0 Damaged sector count : 0
Track 12 Pre-gap length : 00:01:00
Track gain : -11.56 dB Peak : 0.973541 CRC32 hash (test run) : 57EBB879 CRC32 hash : 57EBB879 CRC32 hash (skip zero) : 343E35E2 AccurateRip v1 signature : E639AD6F AccurateRip v2 signature : D886700D ->Accurately ripped (v2, confidence 3/62) Statistics Read error : 0 Jitter error (maybe fixed) : 0 Retry sector count : 0 Damaged sector count : 0
Track 13 Pre-gap length : 00:01:40
Track gain : -11.43 dB Peak : 0.976410 CRC32 hash (test run) : 976C7A00 CRC32 hash : 976C7A00 CRC32 hash (skip zero) : 72D196E8 AccurateRip v1 signature : D6A6DA0D AccurateRip v2 signature : 4C69BBB2 ->Accurately ripped (v2, confidence 3/60) Statistics Read error : 0 Jitter error (maybe fixed) : 0 Retry sector count : 0 Damaged sector count : 0
Track 14 Pre-gap length : 00:01:30
Track gain : -9.74 dB Peak : 0.981995 CRC32 hash (test run) : 647D605C CRC32 hash : 647D605C CRC32 hash (skip zero) : 1C9407C5 AccurateRip v1 signature : 60EB17AE AccurateRip v2 signature : 569448EF ->Accurately ripped (v2, confidence 3/60) Statistics Read error : 0 Jitter error (maybe fixed) : 0 Retry sector count : 0 Damaged sector count : 0
No errors occurred
End of status report

Содержание индексной карты (.CUE)

TITLE "Classic Masters"PERFORMER "Sammy Hagar"REM GENRE "Rock"REM DISCNUMBER 1REM TOTALDISCS 1REM DISCID BA0C300EREM REPLAYGAIN_ALBUM_GAIN -11.69 dBREM REPLAYGAIN_ALBUM_PEAK 0.988495FILE "Classic Masters.flac" WAVE  TRACK 01 AUDIO    TITLE "Red"    SONGWRITER "Hagar, others"    ISRC USCA20200940    REM DATE 1977    REM REPLAYGAIN_TRACK_GAIN -11.37 dB    REM REPLAYGAIN_TRACK_PEAK 0.980286    INDEX 01 00:00:00  TRACK 02 AUDIO    TITLE "(Sittin' On) The Dock Of The Bay"    SONGWRITER "Steve Cropper/Otis Redding"    ISRC USCA20200941    REM DATE 1976    REM REPLAYGAIN_TRACK_GAIN -9.47 dB    REM REPLAYGAIN_TRACK_PEAK 0.968140    INDEX 00 04:12:20    INDEX 01 04:13:32  TRACK 03 AUDIO    TITLE "I've Done Everything For You"    SONGWRITER "Sammy Hagar"    ISRC USCA20200942    REM DATE 1978    REM REPLAYGAIN_TRACK_GAIN -11.60 dB    REM REPLAYGAIN_TRACK_PEAK 0.966278    INDEX 00 07:15:20    INDEX 01 07:15:67  TRACK 04 AUDIO    TITLE "Rock 'n Roll Weekend"    SONGWRITER "Sammy Hagar"    ISRC USCA20200943    REM DATE 1977    REM REPLAYGAIN_TRACK_GAIN -11.06 dB    REM REPLAYGAIN_TRACK_PEAK 0.981720    INDEX 00 10:17:45    INDEX 01 10:19:42  TRACK 05 AUDIO    TITLE "Cruisin' & Boozin'"    SONGWRITER "Sammy Hagar"    ISRC USCA20200944    REM DATE 1977    REM REPLAYGAIN_TRACK_GAIN -10.73 dB    REM REPLAYGAIN_TRACK_PEAK 0.960968    INDEX 00 13:25:35    INDEX 01 13:25:50  TRACK 06 AUDIO    TITLE "Turn Up The Music"    SONGWRITER "John S. Carter Jr./Sammy Hagar"    ISRC USCA20200945    REM DATE 1977    REM REPLAYGAIN_TRACK_GAIN -12.28 dB    REM REPLAYGAIN_TRACK_PEAK 0.962341    INDEX 00 16:32:15    INDEX 01 16:32:25  TRACK 07 AUDIO    TITLE "Reckless"    SONGWRITER "Sammy Hagar"    ISRC USCA20200946    REM DATE 1977    REM REPLAYGAIN_TRACK_GAIN -11.52 dB    REM REPLAYGAIN_TRACK_PEAK 0.974396    INDEX 00 20:06:35    INDEX 01 20:07:62  TRACK 08 AUDIO    TITLE "Trans Am (Highway Wonderland)"    SONGWRITER "Sammy Hagar"    ISRC USCA20200947    REM DATE 1979    REM REPLAYGAIN_TRACK_GAIN -13.40 dB    REM REPLAYGAIN_TRACK_PEAK 0.988495    INDEX 00 23:39:55    INDEX 01 23:41:62  TRACK 09 AUDIO    TITLE "Love Or Money"    SONGWRITER "Hagar, others"    ISRC USCA20200948    REM DATE 1980    REM REPLAYGAIN_TRACK_GAIN -12.07 dB    REM REPLAYGAIN_TRACK_PEAK 0.976715    INDEX 00 27:10:72    INDEX 01 27:12:55  TRACK 10 AUDIO    TITLE "This Planet's On Fire (Burn In Hell)"    SONGWRITER "Sammy Hagar"    ISRC USCA20200949    REM DATE 1983    REM REPLAYGAIN_TRACK_GAIN -11.27 dB    REM REPLAYGAIN_TRACK_PEAK 0.975220    INDEX 00 30:12:65    INDEX 01 30:13:45  TRACK 11 AUDIO    TITLE "Plain Jane"    SONGWRITER "Hagar, others"    ISRC USCA20200950    REM DATE 1979    REM REPLAYGAIN_TRACK_GAIN -11.13 dB    REM REPLAYGAIN_TRACK_PEAK 0.980164    INDEX 00 34:47:35    INDEX 01 34:49:45  TRACK 12 AUDIO    TITLE "Bad Reputation"    SONGWRITER "Sammy Hagar"    ISRC USCA20200951    REM DATE 1980    REM REPLAYGAIN_TRACK_GAIN -11.56 dB    REM REPLAYGAIN_TRACK_PEAK 0.973541    INDEX 00 38:36:42    INDEX 01 38:37:42  TRACK 13 AUDIO    TITLE "Bad Motor Scooter"    SONGWRITER "Sammy Hagar"    ISRC USCA20200952    REM DATE 1978    REM REPLAYGAIN_TRACK_GAIN -11.43 dB    REM REPLAYGAIN_TRACK_PEAK 0.976410    INDEX 00 42:07:57    INDEX 01 42:09:22  TRACK 14 AUDIO    TITLE "You Make Me Crazy"    SONGWRITER "Sammy Hagar"    ISRC USCA20200953    REM DATE 1977    REM REPLAYGAIN_TRACK_GAIN -9.74 dB    REM REPLAYGAIN_TRACK_PEAK 0.981995    INDEX 00 49:14:17    INDEX 01 49:15:47

Об исполнителе (группе)

Американский рок-вокалист, гитарист, композитор

Об альбоме (сборнике)

Classic Masters - это сборник Sammy Hagar 1975-1980 гг. Трек-лист идентичен Best of Sammy Hagar 1999 , но с 24-битным цифровым ремастерингом.

Состав

Sammy Hagar единственный бессменный участник коллектива

If you like the topic, please click share to help develop our site.

To download the file disable ad blocking, and reload the page.

disable adblock How to disable ad blocking?

Download by magnet link 532 MB Download Torrent

Login using:

Similar topics



   
Current time is: 17-Jul 05:59 :: All times are UTC + 3