Daria Zawiałow / Helsinki
Жанр: Indie, Pop-Rock
Носитель: CD
Год издания: 2019
Издатель (лейбл): Sony Music
Страна исполнителя (группы): Польша
Аудиокодек: FLAC (*.flac)
Тип рипа: tracks+.cue
Продолжительность: 01:00:56
Источник: интернет (неизвестен)
Наличие сканов в содержимом раздачи: нет
Треклист:
1. Płynne szczęście
2. Helsinki
3. Punk Fu!
4. Gdybym miała serce
5. Szarówka
6. Winter Is Coming
7. Hej Hej!
8. Saloniki
9. Zbrodnie Ikara
10. Nie dobiję się do Ciebie
11. Majami Synek
12. Wielka płyta
13. Iskrzę się
14. Kryzys wieku naszego
15. Zimne ognie
16. Freddie

Лог создания рипа

В первоисточнике (польский файлообменник) отсутствует

Содержание индексной карты (.CUE)

PERFORMER "Daria  Zawiałow"TITLE "Helsinki"FILE "01 - Płynne szczęście.wav" WAVE  TRACK 01 AUDIO    TITLE "Płynne Szczęście"    PERFORMER "Daria Zawiałow"    INDEX 01 00:00:00  TRACK 02 AUDIO    TITLE "Helsinki"    PERFORMER "Daria Zawiałow"    INDEX 00 03:47:41FILE "02 - Helsinki.wav" WAVE    INDEX 01 00:00:00  TRACK 03 AUDIO    TITLE "Punk Fu!"    PERFORMER "Daria Zawiałow"    INDEX 00 03:28:06FILE "03 - Punk Fu!.wav" WAVE    INDEX 01 00:00:00  TRACK 04 AUDIO    TITLE "Gdybym Miała Serce"    PERFORMER "Daria Zawiałow"    INDEX 00 04:11:32FILE "04 - Gdybym miała serce.wav" WAVE    INDEX 01 00:00:00  TRACK 05 AUDIO    TITLE "Szarówka"    PERFORMER "Daria Zawiałow"    INDEX 00 03:52:10FILE "05 - Szarówka.wav" WAVE    INDEX 01 00:00:00  TRACK 06 AUDIO    TITLE "Winter Is Coming"    PERFORMER "Daria Zawiałow"    INDEX 00 04:12:23FILE "06 - Winter Is Coming.wav" WAVE    INDEX 01 00:00:00  TRACK 07 AUDIO    TITLE "Hej Hej!"    PERFORMER "Daria Zawiałow"    INDEX 00 03:45:35FILE "07 - Hej Hej!.wav" WAVE    INDEX 01 00:00:00  TRACK 08 AUDIO    TITLE "Saloniki"    PERFORMER "Daria Zawiałow"    INDEX 00 03:30:18FILE "08 - Saloniki.wav" WAVE    INDEX 01 00:00:00  TRACK 09 AUDIO    TITLE "Zbrodnie Ikara"    PERFORMER "Daria Zawiałow"    INDEX 00 04:03:13FILE "09 - Zbrodnie Ikara.wav" WAVE    INDEX 01 00:00:00  TRACK 10 AUDIO    TITLE "Nie Dobiję Się Do Ciebie"    PERFORMER "Daria Zawiałow"    INDEX 00 03:41:24FILE "10 - Nie dobiję się do Ciebie.wav" WAVE    INDEX 01 00:00:00  TRACK 11 AUDIO    TITLE "Majami Synek"    PERFORMER "Daria Zawiałow"    INDEX 00 03:13:36FILE "11 - Majami Synek.wav" WAVE    INDEX 01 00:00:00  TRACK 12 AUDIO    TITLE "Wielka Płyta"    PERFORMER "Daria Zawiałow"    INDEX 00 04:01:15FILE "12 - Wielka płyta.wav" WAVE    INDEX 01 00:00:00   TRACK 13 AUDIO    TITLE "Iskrzę Się"    PERFORMER "Daria Zawiałow"    INDEX 00 03:41:27FILE "13 - Iskrzę się.wav" WAVE    INDEX 01 00:00:00   TRACK 14 AUDIO    TITLE "Kryzys Wieku Naszego"    PERFORMER "Daria Zawiałow"    INDEX 00 03:27:11FILE "14 - Kryzys wieku naszego.wav" WAVE    INDEX 01 00:00:00   TRACK 15 AUDIO    TITLE "Zimne Ognie"    PERFORMER "Daria Zawiałow"    INDEX 00 03:34:35FILE "15 - Zimne ognie.wav" WAVE    INDEX 01 00:00:00   TRACK 16 AUDIO    TITLE "Freddie"    PERFORMER "Daria Zawiałow"    INDEX 00 03:44:59FILE "16 - Freddie.wav" WAVE    INDEX 01 00:00:00

Лог проверки качества

AUDIOCHECKER v2.0 beta (build 457) - by Dester - [email protected]~~~~~~~~~~~~~~~~~~~~~~~~~~~~~~~~~~
Started at: суббота, 11. 05. 2019. - 19:40.4016 files found
01 -===- H:\mu\Daria Zawialow\Helsinki (Deluxe Edition) (2019) [FLAC]\01 - Plynne szczescie.flac Error while extracting! Check your rights, free some space if needed and ensure the file is valid.
02 -===- H:\mu\Daria Zawialow\Helsinki (Deluxe Edition) (2019) [FLAC]\02 - Helsinki.flac Extracted successfully Conclusion: this track is CDDA with probability 100% Tempfile successfully deleted.
03 -===- H:\mu\Daria Zawialow\Helsinki (Deluxe Edition) (2019) [FLAC]\03 - Punk Fu!.flac Extracted successfully Conclusion: this track is CDDA with probability 99% Tempfile successfully deleted.
04 -===- H:\mu\Daria Zawialow\Helsinki (Deluxe Edition) (2019) [FLAC]\04 - Gdybym miala serce.flac Error while extracting! Check your rights, free some space if needed and ensure the file is valid.
05 -===- H:\mu\Daria Zawialow\Helsinki (Deluxe Edition) (2019) [FLAC]\05 - Szarowka.flac Error while extracting! Check your rights, free some space if needed and ensure the file is valid.
06 -===- H:\mu\Daria Zawialow\Helsinki (Deluxe Edition) (2019) [FLAC]\06 - Winter Is Coming.flac Extracted successfully Conclusion: this track is CDDA with probability 100% Tempfile successfully deleted.
07 -===- H:\mu\Daria Zawialow\Helsinki (Deluxe Edition) (2019) [FLAC]\07 - Hej Hej!.flac Extracted successfully Conclusion: this track is CDDA with probability 100% Tempfile successfully deleted.
08 -===- H:\mu\Daria Zawialow\Helsinki (Deluxe Edition) (2019) [FLAC]\08 - Saloniki.flac Extracted successfully Conclusion: this track is CDDA with probability 100% Tempfile successfully deleted.
09 -===- H:\mu\Daria Zawialow\Helsinki (Deluxe Edition) (2019) [FLAC]\09 - Zbrodnie Ikara.flac Extracted successfully Conclusion: this track is CDDA with probability 100% Tempfile successfully deleted.
10 -===- H:\mu\Daria Zawialow\Helsinki (Deluxe Edition) (2019) [FLAC]\10 - Nie dobije sie do Ciebie.flac Error while extracting! Check your rights, free some space if needed and ensure the file is valid.
11 -===- H:\mu\Daria Zawialow\Helsinki (Deluxe Edition) (2019) [FLAC]\11 - Majami Synek.flac Extracted successfully Conclusion: this track is CDDA with probability 100% Tempfile successfully deleted.
12 -===- H:\mu\Daria Zawialow\Helsinki (Deluxe Edition) (2019) [FLAC]\12 - Wielka plyta.flac Error while extracting! Check your rights, free some space if needed and ensure the file is valid.
13 -===- H:\mu\Daria Zawialow\Helsinki (Deluxe Edition) (2019) [FLAC]\13 - Iskrze sie.flac Error while extracting! Check your rights, free some space if needed and ensure the file is valid.
14 -===- H:\mu\Daria Zawialow\Helsinki (Deluxe Edition) (2019) [FLAC]\14 - Kryzys wieku naszego.flac Extracted successfully Conclusion: this track is CDDA with probability 100% Tempfile successfully deleted.
15 -===- H:\mu\Daria Zawialow\Helsinki (Deluxe Edition) (2019) [FLAC]\15 - Zimne ognie.flac Extracted successfully Conclusion: this track is CDDA with probability 100% Tempfile successfully deleted.
16 -===- H:\mu\Daria Zawialow\Helsinki (Deluxe Edition) (2019) [FLAC]\16 - Freddie.flac Extracted successfully Conclusion: this track is CDDA with probability 100% Tempfile successfully deleted.
Finished at: суббота, 11. 05. 2019. - 19:42.09 (operation time: 0:01.28)

Спектры




If you like the topic, please click share to help develop our site.

To download the file disable ad blocking, and reload the page.

disable adblock How to disable ad blocking?

Download by magnet link 447 MB Download Torrent

Login using:

Similar topics



   
Current time is: 17-Jul 05:20 :: All times are UTC + 3