Australian Crawl / Sons Of Beaches
Жанр: Rock
Носитель: CD
Страна-производитель диска (релиза): Australia
Год издания: 1995
Издатель (лейбл): EMI
Номер по каталогу: 8319802
Страна исполнителя (группы): Australia
Аудиокодек: FLAC (*.flac)
Тип рипа: tracks+.cue
Продолжительность: 00:47:50
Источник: non_zero
Наличие сканов в содержимом раздачи: нет

Треклист:
01.
02.
03. Mid-Life Crisis
04.
05. King Sap (And Princess Sag)
06. Letter From Zimbabwe
07.
08. Live Now, Pay Later
09. Dianne
10. Grinning Bellhops
11. Waiting
12. (Not So) Happy Song For Problem Children

Лог создания рипа

Exact Audio Copy V1.3 from 2. September 2016
EAC extraction logfile from 1. February 2019, 23:03
Australian Crawl / Sons of Beaches
Used drive : ASUS BW-16D1HT Adapter: 1 ID: 0
Read mode : SecureUtilize accurate stream : YesDefeat audio cache : YesMake use of C2 pointers : No
Read offset correction : 6Overread into Lead-In and Lead-Out : NoFill up missing offset samples with silence : YesDelete leading and trailing silent blocks : NoNull samples used in CRC calculations : YesUsed interface : Native Win32 interface for Win NT & 2000Gap handling : Appended to previous track
Used output format : User Defined EncoderSelected bitrate : 1024 kBit/sQuality : HighAdd ID3 tag : NoCommand line compressor : C:\EAC\flac-1.3.2-win\win64\flac.exeAdditional command line options : -8 -V -T "ARTIST=%artist%" -T "TITLE=%title%" -T "ALBUM=%albumtitle%" -T "DATE=%year%" -T "TRACKNUMBER=%tracknr%" -T "GENRE=%genre%" -T "PERFORMER=%albuminterpret%" -T "COMPOSER=%composer%" %haslyrics%--tag-from-file=LYRICS="%lyricsfile%"%haslyrics% -T "ALBUMARTIST=%albumartist%" -T "DISCNUMBER=%cdnumber%" -T "TOTALDISCS=%totalcds%" -T "TOTALTRACKS=%numtracks%" -T "COMMENT=%comment%" %source% -o %dest%
TOC of the extracted CD
Track | Start | Length | Start sector | End sector --------------------------------------------------------- 1 | 0:00.00 | 4:04.30 | 0 | 18329 2 | 4:04.30 | 4:41.57 | 18330 | 39461 3 | 8:46.12 | 4:51.60 | 39462 | 61346 4 | 13:37.72 | 4:09.23 | 61347 | 80044 5 | 17:47.20 | 2:45.40 | 80045 | 92459 6 | 20:32.60 | 2:48.07 | 92460 | 105066 7 | 23:20.67 | 4:01.18 | 105067 | 123159 8 | 27:22.10 | 4:45.72 | 123160 | 144606 9 | 32:08.07 | 3:44.18 | 144607 | 161424 10 | 35:52.25 | 4:31.00 | 161425 | 181749 11 | 40:23.25 | 3:52.65 | 181750 | 199214 12 | 44:16.15 | 3:33.40 | 199215 | 215229
Track 1
Filename C:\EAC\Australian Crawl - Sons of Beaches (1982) [FLAC] {EMI 8319802}\01 - Runaway Girls.wav
Pre-gap length 0:00:02.00
Peak level 88.2 % Extraction speed 4.4 X Track quality 100.0 % Test CRC F2863E29 Copy CRC F2863E29 Accurately ripped (confidence 7) [724D214F] (AR v2) Copy OK
Track 2
Filename C:\EAC\Australian Crawl - Sons of Beaches (1982) [FLAC] {EMI 8319802}\02 - Daughters of the Northern Coast.wav
Peak level 87.3 % Extraction speed 5.0 X Track quality 100.0 % Test CRC 7B87F1FE Copy CRC 7B87F1FE Accurately ripped (confidence 8) [C98F1292] (AR v2) Copy OK
Track 3
Filename C:\EAC\Australian Crawl - Sons of Beaches (1982) [FLAC] {EMI 8319802}\03 - Mid-Life Crisis.wav
Peak level 88.6 % Extraction speed 4.8 X Track quality 99.9 % Test CRC 6A71F549 Copy CRC 6A71F549 Accurately ripped (confidence 8) [7DD8BE10] (AR v2) Copy OK
Track 4
Filename C:\EAC\Australian Crawl - Sons of Beaches (1982) [FLAC] {EMI 8319802}\04 - Shut Down.wav
Peak level 89.0 % Extraction speed 4.9 X Track quality 99.9 % Test CRC 3682E1D2 Copy CRC 3682E1D2 Accurately ripped (confidence 8) [764BFE26] (AR v2) Copy OK
Track 5
Filename C:\EAC\Australian Crawl - Sons of Beaches (1982) [FLAC] {EMI 8319802}\05 - King Sap (And The Princess Sag).wav
Peak level 87.0 % Extraction speed 5.9 X Track quality 100.0 % Test CRC DE64FF39 Copy CRC DE64FF39 Accurately ripped (confidence 8) [5CF0193D] (AR v2) Copy OK
Track 6
Filename C:\EAC\Australian Crawl - Sons of Beaches (1982) [FLAC] {EMI 8319802}\06 - Letter From Zimbabwe.wav
Peak level 85.1 % Extraction speed 6.0 X Track quality 100.0 % Test CRC A28D870F Copy CRC A28D870F Accurately ripped (confidence 8) [480A275B] (AR v2) Copy OK
Track 7
Filename C:\EAC\Australian Crawl - Sons of Beaches (1982) [FLAC] {EMI 8319802}\07 - Downhearted.wav
Peak level 86.9 % Extraction speed 6.7 X Track quality 100.0 % Test CRC BEF11ED6 Copy CRC BEF11ED6 Accurately ripped (confidence 8) [1C2BFCE4] (AR v2) Copy OK
Track 8
Filename C:\EAC\Australian Crawl - Sons of Beaches (1982) [FLAC] {EMI 8319802}\08 - Live Now, Pay Later.wav
Peak level 86.6 % Extraction speed 7.2 X Track quality 100.0 % Test CRC 80D47EEB Copy CRC 80D47EEB Accurately ripped (confidence 8) [01AB2B24] (AR v2) Copy OK
Track 9
Filename C:\EAC\Australian Crawl - Sons of Beaches (1982) [FLAC] {EMI 8319802}\09 - Dianne.wav
Peak level 84.5 % Extraction speed 7.3 X Track quality 100.0 % Test CRC 1831278E Copy CRC 1831278E Accurately ripped (confidence 8) [9D6AB192] (AR v2) Copy OK
Track 10
Filename C:\EAC\Australian Crawl - Sons of Beaches (1982) [FLAC] {EMI 8319802}\10 - Grinning Bellhops.wav
Peak level 86.1 % Extraction speed 7.8 X Track quality 100.0 % Test CRC 392FDBA3 Copy CRC 392FDBA3 Accurately ripped (confidence 8) [E80C81D3] (AR v2) Copy OK
Track 11
Filename C:\EAC\Australian Crawl - Sons of Beaches (1982) [FLAC] {EMI 8319802}\11 - Waiting.wav
Peak level 86.3 % Extraction speed 7.9 X Track quality 100.0 % Test CRC 3B67AB1D Copy CRC 3B67AB1D Accurately ripped (confidence 8) [5593D1AE] (AR v2) Copy OK
Track 12
Filename C:\EAC\Australian Crawl - Sons of Beaches (1982) [FLAC] {EMI 8319802}\12 - (Not So) Happy Song for Problem Children.wav
Peak level 82.8 % Extraction speed 7.9 X Track quality 100.0 % Test CRC 392B3B63 Copy CRC 392B3B63 Accurately ripped (confidence 8) [99A7C121] (AR v2) Copy OK
All tracks accurately ripped
No errors occurred
End of status report
---- CUETools DB Plugin V2.1.6
[CTDB TOCID: IvBe17bXF30wk4Ob0L.he8Ra45w-] foundSubmit result: IvBe17bXF30wk4Ob0L.he8Ra45w- has been confirmedTrack | CTDB Status 1 | (32/32) Accurately ripped 2 | (32/32) Accurately ripped 3 | (32/32) Accurately ripped 4 | (32/32) Accurately ripped 5 | (32/32) Accurately ripped 6 | (32/32) Accurately ripped 7 | (32/32) Accurately ripped 8 | (32/32) Accurately ripped 9 | (32/32) Accurately ripped 10 | (32/32) Accurately ripped 11 | (32/32) Accurately ripped 12 | (32/32) Accurately ripped
==== Log checksum 48748E19DF6215E7A48988A1B27910275896072CDC9D890E87478235BC8EC16B ====

Содержание индексной карты (.CUE)

REM DATE 1982REM DISCID 9A0B350CREM COMMENT "ExactAudioCopy v1.3"CATALOG 0000000000000PERFORMER "Australian Crawl"TITLE "Sons of Beaches"REM COMPOSER ""FILE "01 - Runaway Girls.wav" WAVE  TRACK 01 AUDIO    TITLE "Runaway Girls"    PERFORMER "Australian Crawl"    REM COMPOSER ""    INDEX 01 00:00:00FILE "02 - Daughters of the Northern Coast.wav" WAVE  TRACK 02 AUDIO    TITLE "Daughters of the Northern Coast"    PERFORMER "Australian Crawl"    REM COMPOSER ""    INDEX 01 00:00:00FILE "03 - Mid-Life Crisis.wav" WAVE  TRACK 03 AUDIO    TITLE "Mid-Life Crisis"    PERFORMER "Australian Crawl"    REM COMPOSER ""    INDEX 01 00:00:00FILE "04 - Shut Down.wav" WAVE  TRACK 04 AUDIO    TITLE "Shut Down"    PERFORMER "Australian Crawl"    REM COMPOSER ""    INDEX 01 00:00:00FILE "05 - King Sap (And The Princess Sag).wav" WAVE  TRACK 05 AUDIO    TITLE "King Sap (And The Princess Sag)"    PERFORMER "Australian Crawl"    REM COMPOSER ""    INDEX 01 00:00:00FILE "06 - Letter From Zimbabwe.wav" WAVE  TRACK 06 AUDIO    TITLE "Letter From Zimbabwe"    PERFORMER "Australian Crawl"    REM COMPOSER ""    INDEX 01 00:00:00FILE "07 - Downhearted.wav" WAVE  TRACK 07 AUDIO    TITLE "Downhearted"    PERFORMER "Australian Crawl"    REM COMPOSER ""    INDEX 01 00:00:00FILE "08 - Live Now, Pay Later.wav" WAVE  TRACK 08 AUDIO    TITLE "Live Now, Pay Later"    PERFORMER "Australian Crawl"    REM COMPOSER ""    INDEX 01 00:00:00FILE "09 - Dianne.wav" WAVE  TRACK 09 AUDIO    TITLE "Dianne"    PERFORMER "Australian Crawl"    REM COMPOSER ""    INDEX 01 00:00:00FILE "10 - Grinning Bellhops.wav" WAVE  TRACK 10 AUDIO    TITLE "Grinning Bellhops"    PERFORMER "Australian Crawl"    REM COMPOSER ""    INDEX 01 00:00:00FILE "11 - Waiting.wav" WAVE  TRACK 11 AUDIO    TITLE "Waiting"    PERFORMER "Australian Crawl"    REM COMPOSER ""    INDEX 01 00:00:00FILE "12 - (Not So) Happy Song for Problem Children.wav" WAVE  TRACK 12 AUDIO    TITLE "(Not So) Happy Song for Problem Children"    PERFORMER "Australian Crawl"    REM COMPOSER ""    INDEX 01 00:00:00

AccurateRip

[CUETools log; Date: 11.05.2019 11:38:44; Version: 2.1.5][CTDB TOCID: IvBe17bXF30wk4Ob0L.he8Ra45w-] found.Track | CTDB Status  1   | (35/35) Accurately ripped  2   | (35/35) Accurately ripped  3   | (35/35) Accurately ripped  4   | (35/35) Accurately ripped  5   | (35/35) Accurately ripped  6   | (35/35) Accurately ripped  7   | (35/35) Accurately ripped  8   | (35/35) Accurately ripped  9   | (35/35) Accurately ripped 10   | (35/35) Accurately ripped 11   | (35/35) Accurately ripped 12   | (35/35) Accurately ripped[AccurateRip ID: 0015b312-00c91b36-9a0b350c] found.Track   [  CRC   |   V2   ] Status 01     [24cb4a1a|724d214f] (12+07/33) Accurately ripped 02     [07f92a96|c98f1292] (12+08/34) Accurately ripped 03     [cb218d9d|7dd8be10] (12+08/34) Accurately ripped 04     [603a16e1|764bfe26] (12+08/34) Accurately ripped 05     [709ffa7f|5cf0193d] (12+08/34) Accurately ripped 06     [8ba50766|480a275b] (12+08/34) Accurately ripped 07     [fcfa7a44|1c2bfce4] (12+08/34) Accurately ripped 08     [18cd58ce|01ab2b24] (12+08/34) Accurately ripped 09     [408b7d05|9d6ab192] (12+08/34) Accurately ripped 10     [a77fa67c|e80c81d3] (11+08/33) Accurately ripped 11     [988ff11a|5593d1ae] (12+08/33) Accurately ripped 12     [668cb887|99a7c121] (12+08/34) Accurately rippedOffsetted by 904: 01     [bd8765ea] (03/33) Accurately ripped 02     [98610777] (03/34) Accurately ripped 03     [5115c7f6] (03/34) Accurately ripped 04     [ade5f4d7] (03/34) Accurately ripped 05     [ea93d538] (03/34) Accurately ripped 06     [524e98e6] (03/34) Accurately ripped 07     [9e18d01d] (03/34) Accurately ripped 08     [98cd8feb] (03/34) Accurately ripped 09     [07c602b6] (03/34) Accurately ripped 10     [78da3a13] (03/33) Accurately ripped 11     [af905251] (03/33) Accurately ripped 12     [43261016] (03/34) Accurately rippedOffsetted by -36: 01     [92406672] (00/33) No match (V2 was not tested) 02     [6c59055e] (00/34) No match (V2 was not tested) 03     [b0a04e45] (00/34) No match (V2 was not tested) 04     [8bb2e2f1] (00/34) No match (V2 was not tested) 05     [092204d3] (00/34) No match (V2 was not tested) 06     [1cf42d88] (00/34) No match (V2 was not tested) 07     [0cdef3f0] (00/34) No match (V2 was not tested) 08     [394ab220] (00/34) No match (V2 was not tested) 09     [d3d40717] (00/34) No match (V2 was not tested) 10     [f9614b83] (00/33) No match (V2 was not tested) 11     [a6b6b74b] (00/33) No match (V2 was not tested) 12     [9a7ac6e1] (00/34) No match (V2 was not tested)
Track Peak [ CRC32 ] [W/O NULL] [ LOG ] -- 89,0 [204BB3CF] [EA62563A] 01 88,2 [F2863E29] [5EEC6D88] CRC32 02 87,3 [7B87F1FE] [1212666F] CRC32 03 88,6 [6A71F549] [17B92A50] CRC32 04 89,0 [3682E1D2] [77B15234] CRC32 05 87,0 [DE64FF39] [EAAE4EA3] CRC32 06 85,1 [A28D870F] [62AD8C4A] CRC32 07 86,9 [BEF11ED6] [13474062] CRC32 08 86,6 [80D47EEB] [9D0AF7E8] CRC32 09 84,5 [1831278E] [B065FD22] CRC32 10 86,1 [392FDBA3] [2E52FA50] CRC32 11 86,3 [3B67AB1D] [BBEB509A] CRC32 12 82,8 [392B3B63] [F57A9682] CRC32

If you like the topic, please click share to help develop our site.

To download the file disable ad blocking, and reload the page.

disable adblock How to disable ad blocking?

Download by magnet link 324 MB Download Torrent

Login using:

Similar topics



   
Current time is: 17-Jul 06:04 :: All times are UTC + 3