Change / Album Collection
Жанр: Soul, Funk, Disco
Носитель: CD
Страна-производитель диска (релиза): Italy
Год издания: 2006
Издатель (лейбл): Fonte Records
Номер по каталогу: FTE BOX 02
Аудиокодек: FLAC (*.flac)
Тип рипа: tracks+.cue
Продолжительность: 04:36:21
Источник: awaxhome
Наличие сканов в содержимом раздачи: да

CD1 The Glow Of Love (1980) (00:58:52)

01. A Lover's Holiday (A Jim Burgess Mix) (06:25)
02. It's A Girl's Affair (05:30)
03. Angel In My Pocket (06:11)
04. The Glow Of Love (06:13)
05. Searching (08:03)
06. The End (05:54)
Bonus Tracks:
07. A Lover's Holiday (Single Edit) (04:13)
08. Searching (Single Edit) (04:44)
09. The Glow Of Love (Single Edit) (04:35)
10. Angel In My Pocket (Extended Version) (07:10)

Лог создания рипа

Exact Audio Copy V0.99 prebeta 5 from 4. May 2009
EAC extraction logfile from 5. January 2010, 18:35
Change / The Glow Of Love
Used drive : Optiarc DVD RW AD-5170A Adapter: 0 ID: 1
Read mode : SecureUtilize accurate stream : YesDefeat audio cache : YesMake use of C2 pointers : No
Read offset correction : 48Overread into Lead-In and Lead-Out : NoFill up missing offset samples with silence : YesDelete leading and trailing silent blocks : NoNull samples used in CRC calculations : YesUsed interface : Installed external ASPI interfaceGap handling : Appended to previous track
Used output format : User Defined EncoderSelected bitrate : 128 kBit/sQuality : HighAdd ID3 tag : NoCommand line compressor : C:\Programmi\Exact Audio Copy\Flac\flac.exeAdditional command line options : -8 -V -T "artist=%a" -T "title=%t" -T "album=%g" -T "date=%y" -T "tracknumber=%n" -T "genre=%m" %s
TOC of the extracted CD
Track | Start | Length | Start sector | End sector --------------------------------------------------------- 1 | 0:00.00 | 6:24.61 | 0 | 28860 2 | 6:24.61 | 5:30.17 | 28861 | 53627 3 | 11:55.03 | 6:10.72 | 53628 | 81449 4 | 18:06.00 | 6:13.18 | 81450 | 109442 5 | 24:19.18 | 8:03.07 | 109443 | 145674 6 | 32:22.25 | 5:53.55 | 145675 | 172204 7 | 38:16.05 | 4:13.04 | 172205 | 191183 8 | 42:29.09 | 4:43.38 | 191184 | 212446 9 | 47:12.47 | 4:34.69 | 212447 | 233065 10 | 51:47.41 | 7:09.61 | 233066 | 265301
Track 1
Filename E:\WCD\Album Collection (FTE BOX 02)\Change - The Glow Of Love\01 - A Lover's Holiday (A Jim Burgess Mix).wav
Pre-gap length 0:00:02.00
Peak level 100.0 % Track quality 100.0 % Test CRC E560CFF7 Copy CRC E560CFF7 Accurately ripped (confidence 1) [00EE0CB5] Copy OK
Track 2
Filename E:\WCD\Album Collection (FTE BOX 02)\Change - The Glow Of Love\02 - It's A Girl's Affair.wav
Pre-gap length 0:00:02.00
Peak level 99.9 % Track quality 100.0 % Test CRC D6F37DC0 Copy CRC D6F37DC0 Accurately ripped (confidence 1) [AD047B61] Copy OK
Track 3
Filename E:\WCD\Album Collection (FTE BOX 02)\Change - The Glow Of Love\03 - Angel In My Pocket.wav
Pre-gap length 0:00:02.00
Peak level 99.9 % Track quality 100.0 % Test CRC 05C99760 Copy CRC 05C99760 Accurately ripped (confidence 1) [11682AE1] Copy OK
Track 4
Filename E:\WCD\Album Collection (FTE BOX 02)\Change - The Glow Of Love\04 - The Glow Of Love.wav
Pre-gap length 0:00:02.00
Peak level 100.0 % Track quality 99.9 % Test CRC 8A647F03 Copy CRC 8A647F03 Accurately ripped (confidence 1) [80500538] Copy OK
Track 5
Filename E:\WCD\Album Collection (FTE BOX 02)\Change - The Glow Of Love\05 - Searching.wav
Pre-gap length 0:00:02.00
Peak level 99.9 % Track quality 100.0 % Test CRC 4ADF4AE2 Copy CRC 4ADF4AE2 Accurately ripped (confidence 1) [F1890C38] Copy OK
Track 6
Filename E:\WCD\Album Collection (FTE BOX 02)\Change - The Glow Of Love\06 - The End.wav
Pre-gap length 0:00:02.00
Peak level 99.9 % Track quality 100.0 % Test CRC 2C083A7C Copy CRC 2C083A7C Accurately ripped (confidence 1) [AEB41BD1] Copy OK
Track 7
Filename E:\WCD\Album Collection (FTE BOX 02)\Change - The Glow Of Love\07 - A Lover's Holiday (Single Edit).wav
Pre-gap length 0:00:02.00
Peak level 100.0 % Track quality 100.0 % Test CRC 430CBC15 Copy CRC 430CBC15 Accurately ripped (confidence 1) [FA38BAB1] Copy OK
Track 8
Filename E:\WCD\Album Collection (FTE BOX 02)\Change - The Glow Of Love\08 - Searching (Single Edit).wav
Pre-gap length 0:00:02.00
Peak level 100.0 % Track quality 100.0 % Test CRC 42A527CD Copy CRC 42A527CD Accurately ripped (confidence 1) [A4E92111] Copy OK
Track 9
Filename E:\WCD\Album Collection (FTE BOX 02)\Change - The Glow Of Love\09 - The Glow Of Love (Single Edit).wav
Pre-gap length 0:00:02.00
Peak level 99.9 % Track quality 99.9 % Test CRC DCB6A5F3 Copy CRC DCB6A5F3 Accurately ripped (confidence 1) [51128374] Copy OK
Track 10
Filename E:\WCD\Album Collection (FTE BOX 02)\Change - The Glow Of Love\10 - Angel In My Pocket (Extended Version).wav
Pre-gap length 0:00:02.00
Peak level 99.9 % Track quality 100.0 % Test CRC F9FDB013 Copy CRC F9FDB013 Accurately ripped (confidence 1) [F012A313] Copy OK
All tracks accurately ripped
No errors occurred
End of status report

Содержание индексной карты (.CUE)

REM GENRE FunkREM DATE 1980REM DISCID 910DD10AREM COMMENT "ExactAudioCopy v0.99pb5"CATALOG >;?335271>PERFORMER "Change"TITLE "The Glow Of Love"FILE "01 - A Lover's Holiday (A Jim Burgess Mix).wav" WAVE  TRACK 01 AUDIO    TITLE "A Lover's Holiday (A Jim Burgess Mix)"    PERFORMER "Change"    ISRC 000000000000    FLAGS DCP    INDEX 01 00:00:00  TRACK 02 AUDIO    TITLE "It's A Girl's Affair"    PERFORMER "Change"    ISRC 000000000000    FLAGS DCP    INDEX 00 06:22:61FILE "02 - It's A Girl's Affair.wav" WAVE    INDEX 01 00:00:00  TRACK 03 AUDIO    TITLE "Angel In My Pocket"    PERFORMER "Change"    ISRC 000000000000    FLAGS DCP    INDEX 00 05:28:17FILE "03 - Angel In My Pocket.wav" WAVE    INDEX 01 00:00:00  TRACK 04 AUDIO    TITLE "The Glow Of Love"    PERFORMER "Change"    ISRC 000000000000    FLAGS DCP    INDEX 00 06:08:72FILE "04 - The Glow Of Love.wav" WAVE    INDEX 01 00:00:00  TRACK 05 AUDIO    TITLE "Searching"    PERFORMER "Change"    ISRC 000000000000    FLAGS DCP    INDEX 00 06:11:18FILE "05 - Searching.wav" WAVE    INDEX 01 00:00:00  TRACK 06 AUDIO    TITLE "The End"    PERFORMER "Change"    ISRC 000000000000    FLAGS DCP    INDEX 00 08:01:07FILE "06 - The End.wav" WAVE    INDEX 01 00:00:00  TRACK 07 AUDIO    TITLE "A Lover's Holiday (Single Edit)"    PERFORMER "Change"    ISRC 000000000000    FLAGS DCP    INDEX 00 05:51:55FILE "07 - A Lover's Holiday (Single Edit).wav" WAVE    INDEX 01 00:00:00  TRACK 08 AUDIO    TITLE "Searching (Single Edit)"    PERFORMER "Change"    ISRC 000000000000    FLAGS DCP    INDEX 00 04:11:04FILE "08 - Searching (Single Edit).wav" WAVE    INDEX 01 00:00:00  TRACK 09 AUDIO    TITLE "The Glow Of Love (Single Edit)"    PERFORMER "Change"    ISRC 000000000000    FLAGS DCP    INDEX 00 04:41:38FILE "09 - The Glow Of Love (Single Edit).wav" WAVE    INDEX 01 00:00:00  TRACK 10 AUDIO    TITLE "Angel In My Pocket (Extended Version)"    PERFORMER "Change"    ISRC 000000000000    FLAGS DCP    INDEX 00 04:32:69FILE "10 - Angel In My Pocket (Extended Version).wav" WAVE    INDEX 01 00:00:00

CD2 Miracles (1981) (00:49:00)

01. Paradise (05:13)
02. Hold Tight (04:29)
03. Your Move (04:25)
04. Stop For Love (04:13)
05. On Top (05:17)
06. Heaven Of My Life (05:38)
07. Miracles (05:22)
Bonus Tracks:
08. Paradise (U.K. Singe Mix) (05:16)
09. On Top (Extended Version) (05:59)
10. Paradise (Singel Edit) (03:12)

Лог создания рипа

Exact Audio Copy V0.99 prebeta 5 from 4. May 2009
EAC extraction logfile from 5. January 2010, 18:58
Change / Miracles
Used drive : Optiarc DVD RW AD-5170A Adapter: 0 ID: 1
Read mode : SecureUtilize accurate stream : YesDefeat audio cache : YesMake use of C2 pointers : No
Read offset correction : 48Overread into Lead-In and Lead-Out : NoFill up missing offset samples with silence : YesDelete leading and trailing silent blocks : NoNull samples used in CRC calculations : YesUsed interface : Installed external ASPI interfaceGap handling : Appended to previous track
Used output format : User Defined EncoderSelected bitrate : 128 kBit/sQuality : HighAdd ID3 tag : NoCommand line compressor : C:\Programmi\Exact Audio Copy\Flac\flac.exeAdditional command line options : -8 -V -T "artist=%a" -T "title=%t" -T "album=%g" -T "date=%y" -T "tracknumber=%n" -T "genre=%m" %s
TOC of the extracted CD
Track | Start | Length | Start sector | End sector --------------------------------------------------------- 1 | 0:00.00 | 5:13.05 | 0 | 23479 2 | 5:13.05 | 4:28.49 | 23480 | 43628 3 | 9:41.54 | 4:24.60 | 43629 | 63488 4 | 14:06.39 | 4:12.44 | 63489 | 82432 5 | 18:19.08 | 5:17.10 | 82433 | 106217 6 | 23:36.18 | 5:38.34 | 106218 | 131601 7 | 29:14.52 | 5:22.37 | 131602 | 155788 8 | 34:37.14 | 5:16.19 | 155789 | 179507 9 | 39:53.33 | 5:58.44 | 179508 | 206401 10 | 45:52.02 | 3:12.03 | 206402 | 220804
Track 1
Filename E:\WCD\Album Collection (FTE BOX 02)\Change - Miracles\01 - Paradise.wav
Pre-gap length 0:00:02.00
Peak level 100.0 % Track quality 100.0 % Test CRC CA2524CA Copy CRC CA2524CA Accurately ripped (confidence 1) [CCBB8F5E] Copy OK
Track 2
Filename E:\WCD\Album Collection (FTE BOX 02)\Change - Miracles\02 - Hold Tight.wav
Pre-gap length 0:00:02.00
Peak level 99.9 % Track quality 99.9 % Test CRC F5573865 Copy CRC F5573865 Accurately ripped (confidence 1) [A3040AAB] Copy OK
Track 3
Filename E:\WCD\Album Collection (FTE BOX 02)\Change - Miracles\03 - Your Move.wav
Pre-gap length 0:00:02.00
Peak level 99.9 % Track quality 100.0 % Test CRC 2CEAC530 Copy CRC 2CEAC530 Accurately ripped (confidence 1) [CE7C3959] Copy OK
Track 4
Filename E:\WCD\Album Collection (FTE BOX 02)\Change - Miracles\04 - Stop For Love.wav
Pre-gap length 0:00:02.00
Peak level 100.0 % Track quality 100.0 % Test CRC 6DB3AD98 Copy CRC 6DB3AD98 Accurately ripped (confidence 1) [50532AE4] Copy OK
Track 5
Filename E:\WCD\Album Collection (FTE BOX 02)\Change - Miracles\05 - On Top.wav
Pre-gap length 0:00:02.00
Peak level 99.9 % Track quality 99.9 % Test CRC 5E71BCE5 Copy CRC 5E71BCE5 Accurately ripped (confidence 1) [8CF4674E] Copy OK
Track 6
Filename E:\WCD\Album Collection (FTE BOX 02)\Change - Miracles\06 - Heaven Of My Life.wav
Pre-gap length 0:00:02.00
Peak level 99.9 % Track quality 100.0 % Test CRC 51153459 Copy CRC 51153459 Accurately ripped (confidence 1) [0E413290] Copy OK
Track 7
Filename E:\WCD\Album Collection (FTE BOX 02)\Change - Miracles\07 - Miracles.wav
Pre-gap length 0:00:02.00
Peak level 99.9 % Track quality 100.0 % Test CRC 77ACB133 Copy CRC 77ACB133 Accurately ripped (confidence 1) [2FE8A63F] Copy OK
Track 8
Filename E:\WCD\Album Collection (FTE BOX 02)\Change - Miracles\08 - Paradise (U.K. Singe Mix).wav
Pre-gap length 0:00:02.00
Peak level 99.9 % Track quality 100.0 % Test CRC A1F60BCE Copy CRC A1F60BCE Accurately ripped (confidence 1) [DFDBE01D] Copy OK
Track 9
Filename E:\WCD\Album Collection (FTE BOX 02)\Change - Miracles\09 - On Top (Extended Version).wav
Pre-gap length 0:00:02.00
Peak level 99.9 % Track quality 100.0 % Test CRC 825B2A7B Copy CRC 825B2A7B Accurately ripped (confidence 1) [008840DC] Copy OK
Track 10
Filename E:\WCD\Album Collection (FTE BOX 02)\Change - Miracles\10 - Paradise (Singel Edit).wav
Pre-gap length 0:00:02.00
Peak level 100.0 % Track quality 100.0 % Test CRC 335857FE Copy CRC 335857FE Accurately ripped (confidence 1) [B5AE403D] Copy OK
All tracks accurately ripped
No errors occurred
End of status report

Содержание индексной карты (.CUE)

REM GENRE FunkREM DATE 1981REM DISCID 8A0B800AREM COMMENT "ExactAudioCopy v0.99pb5"PERFORMER "Change"TITLE "Miracles"FILE "01 - Paradise.wav" WAVE  TRACK 01 AUDIO    TITLE "Paradise"    PERFORMER "Change"    ISRC 000000000000    FLAGS DCP    INDEX 01 00:00:00  TRACK 02 AUDIO    TITLE "Hold Tight"    PERFORMER "Change"    ISRC 000000000000    FLAGS DCP    INDEX 00 05:11:05FILE "02 - Hold Tight.wav" WAVE    INDEX 01 00:00:00  TRACK 03 AUDIO    TITLE "Your Move"    PERFORMER "Change"    ISRC 000000000000    FLAGS DCP    INDEX 00 04:26:49FILE "03 - Your Move.wav" WAVE    INDEX 01 00:00:00  TRACK 04 AUDIO    TITLE "Stop For Love"    PERFORMER "Change"    ISRC 000000000000    FLAGS DCP    INDEX 00 04:22:60FILE "04 - Stop For Love.wav" WAVE    INDEX 01 00:00:00  TRACK 05 AUDIO    TITLE "On Top"    PERFORMER "Change"    ISRC 000000000000    FLAGS DCP    INDEX 00 04:10:44FILE "05 - On Top.wav" WAVE    INDEX 01 00:00:00  TRACK 06 AUDIO    TITLE "Heaven Of My Life"    PERFORMER "Change"    ISRC 000000000000    FLAGS DCP    INDEX 00 05:15:10FILE "06 - Heaven Of My Life.wav" WAVE    INDEX 01 00:00:00  TRACK 07 AUDIO    TITLE "Miracles"    PERFORMER "Change"    ISRC 000000000000    FLAGS DCP    INDEX 00 05:36:34FILE "07 - Miracles.wav" WAVE    INDEX 01 00:00:00  TRACK 08 AUDIO    TITLE "Paradise (U.K. Singe Mix)"    PERFORMER "Change"    ISRC 000000000000    FLAGS DCP    INDEX 00 05:20:37FILE "08 - Paradise (U.K. Singe Mix).wav" WAVE    INDEX 01 00:00:00  TRACK 09 AUDIO    TITLE "On Top (Extended Version)"    PERFORMER "Change"    ISRC 000000000000    FLAGS DCP    INDEX 00 05:14:19FILE "09 - On Top (Extended Version).wav" WAVE    INDEX 01 00:00:00  TRACK 10 AUDIO    TITLE "Paradise (Singel Edit)"    PERFORMER "Change"    ISRC 000000000000    FLAGS DCP    INDEX 00 05:56:44FILE "10 - Paradise (Singel Edit).wav" WAVE    INDEX 01 00:00:00

CD3 Sharing Your Love (1982) (01:01:03)

01. The Very Best In You (05:43)
02. Hard Times (It's Gonna Be Alright) (05:21)
03. Oh What A Night (05:26)
04. Promise Your Love (04:29)
05. Everything And More (04:20)
06. Sharing Your Love (06:02)
07. Take You To Heaven (05:27)
08. Keep On It (05:38)
09. You're My Number (04:20)
10. You're My Girl (04:08)
Bonus Tracks:
11. The Very Best In You (Single Edit) (04:12)
12. Hard Times (Extended Version) (06:02)

Лог создания рипа

Exact Audio Copy V0.99 prebeta 5 from 4. May 2009
EAC extraction logfile from 5. January 2010, 19:31
Change / Sharing Your Love
Used drive : Optiarc DVD RW AD-5170A Adapter: 0 ID: 1
Read mode : SecureUtilize accurate stream : YesDefeat audio cache : YesMake use of C2 pointers : No
Read offset correction : 48Overread into Lead-In and Lead-Out : NoFill up missing offset samples with silence : YesDelete leading and trailing silent blocks : NoNull samples used in CRC calculations : YesUsed interface : Installed external ASPI interfaceGap handling : Appended to previous track
Used output format : User Defined EncoderSelected bitrate : 128 kBit/sQuality : HighAdd ID3 tag : NoCommand line compressor : C:\Programmi\Exact Audio Copy\Flac\flac.exeAdditional command line options : -8 -V -T "artist=%a" -T "title=%t" -T "album=%g" -T "date=%y" -T "tracknumber=%n" -T "genre=%m" %s
TOC of the extracted CD
Track | Start | Length | Start sector | End sector --------------------------------------------------------- 1 | 0:00.00 | 5:42.47 | 0 | 25696 2 | 5:42.47 | 5:20.64 | 25697 | 49760 3 | 11:03.36 | 5:26.14 | 49761 | 74224 4 | 16:29.50 | 4:29.00 | 74225 | 94399 5 | 20:58.50 | 4:20.22 | 94400 | 113921 6 | 25:18.72 | 6:02.08 | 113922 | 141079 7 | 31:21.05 | 5:26.60 | 141080 | 165589 8 | 36:47.65 | 5:37.50 | 165590 | 190914 9 | 42:25.40 | 4:20.27 | 190915 | 210441 10 | 46:45.67 | 4:08.09 | 210442 | 229050 11 | 50:54.01 | 4:12.26 | 229051 | 247976 12 | 55:06.27 | 6:01.52 | 247977 | 275103
Track 1
Filename E:\WCD\Album Collection (FTE BOX 02)\Change - Sharing Your Love\01 - The Very Best In You.wav
Pre-gap length 0:00:02.00
Peak level 100.0 % Track quality 100.0 % Test CRC C5C8D69B Copy CRC C5C8D69B Accurately ripped (confidence 1) [8C234CEB] Copy OK
Track 2
Filename E:\WCD\Album Collection (FTE BOX 02)\Change - Sharing Your Love\02 - Hard Times (It's Gonna Be Alright).wav
Pre-gap length 0:00:02.00
Peak level 100.0 % Track quality 100.0 % Test CRC EEB35AE2 Copy CRC EEB35AE2 Accurately ripped (confidence 1) [67CE0F21] Copy OK
Track 3
Filename E:\WCD\Album Collection (FTE BOX 02)\Change - Sharing Your Love\03 - Oh What A Night.wav
Pre-gap length 0:00:02.00
Peak level 100.0 % Track quality 100.0 % Test CRC 05A9D918 Copy CRC 05A9D918 Accurately ripped (confidence 1) [C1C86D1C] Copy OK
Track 4
Filename E:\WCD\Album Collection (FTE BOX 02)\Change - Sharing Your Love\04 - Promise Your Love.wav
Pre-gap length 0:00:02.00
Peak level 100.0 % Track quality 100.0 % Test CRC FD637646 Copy CRC FD637646 Accurately ripped (confidence 1) [EA6F0C11] Copy OK
Track 5
Filename E:\WCD\Album Collection (FTE BOX 02)\Change - Sharing Your Love\05 - Everything And More.wav
Pre-gap length 0:00:02.00
Peak level 100.0 % Track quality 100.0 % Test CRC BE35BDDD Copy CRC BE35BDDD Accurately ripped (confidence 1) [AE903181] Copy OK
Track 6
Filename E:\WCD\Album Collection (FTE BOX 02)\Change - Sharing Your Love\06 - Sharing Your Love.wav
Pre-gap length 0:00:02.00
Peak level 100.0 % Track quality 100.0 % Test CRC 1C94AC9E Copy CRC 1C94AC9E Accurately ripped (confidence 1) [DC05191B] Copy OK
Track 7
Filename E:\WCD\Album Collection (FTE BOX 02)\Change - Sharing Your Love\07 - Take You To Heaven.wav
Pre-gap length 0:00:02.00
Peak level 100.0 % Track quality 100.0 % Test CRC EB6A64B9 Copy CRC EB6A64B9 Accurately ripped (confidence 1) [510DD21F] Copy OK
Track 8
Filename E:\WCD\Album Collection (FTE BOX 02)\Change - Sharing Your Love\08 - Keep On It.wav
Pre-gap length 0:00:02.00
Peak level 100.0 % Track quality 100.0 % Test CRC 5EBCFA6A Copy CRC 5EBCFA6A Accurately ripped (confidence 1) [F60607E2] Copy OK
Track 9
Filename E:\WCD\Album Collection (FTE BOX 02)\Change - Sharing Your Love\09 - You're My Number.wav
Pre-gap length 0:00:02.00
Peak level 100.0 % Track quality 100.0 % Test CRC FDAC53E1 Copy CRC FDAC53E1 Accurately ripped (confidence 1) [08EB6E47] Copy OK
Track 10
Filename E:\WCD\Album Collection (FTE BOX 02)\Change - Sharing Your Love\10 - You're My Girl.wav
Pre-gap length 0:00:02.00
Peak level 100.0 % Track quality 100.0 % Test CRC 87C79A75 Copy CRC 87C79A75 Accurately ripped (confidence 1) [C682C53B] Copy OK
Track 11
Filename E:\WCD\Album Collection (FTE BOX 02)\Change - Sharing Your Love\11 - The Very Best In You (Single Edit).wav
Pre-gap length 0:00:02.00
Peak level 100.0 % Track quality 99.9 % Test CRC EDB44E71 Copy CRC EDB44E71 Accurately ripped (confidence 1) [3B9E9D0D] Copy OK
Track 12
Filename E:\WCD\Album Collection (FTE BOX 02)\Change - Sharing Your Love\12 - Hard Times (Extended Version).wav
Pre-gap length 0:00:02.00
Peak level 100.0 % Track quality 99.9 % Test CRC 0954D310 Copy CRC 0954D310 Accurately ripped (confidence 1) [BFEB6161] Copy OK
All tracks accurately ripped
No errors occurred
End of status report

Содержание индексной карты (.CUE)

REM GENRE FunkREM DATE 1982REM DISCID A20E540CREM COMMENT "ExactAudioCopy v0.99pb5"PERFORMER "Change"TITLE "Sharing Your Love"FILE "01 - The Very Best In You.wav" WAVE  TRACK 01 AUDIO    TITLE "The Very Best In You"    PERFORMER "Change"    ISRC 000000000000    FLAGS DCP    INDEX 01 00:00:00  TRACK 02 AUDIO    TITLE "Hard Times (It's Gonna Be Alright)"    PERFORMER "Change"    ISRC 000000000000    FLAGS DCP    INDEX 00 05:40:47FILE "02 - Hard Times (It's Gonna Be Alright).wav" WAVE    INDEX 01 00:00:00  TRACK 03 AUDIO    TITLE "Oh What A Night"    PERFORMER "Change"    ISRC 000000000000    FLAGS DCP    INDEX 00 05:18:64FILE "03 - Oh What A Night.wav" WAVE    INDEX 01 00:00:00  TRACK 04 AUDIO    TITLE "Promise Your Love"    PERFORMER "Change"    ISRC 000000000000    FLAGS DCP    INDEX 00 05:24:14FILE "04 - Promise Your Love.wav" WAVE    INDEX 01 00:00:00  TRACK 05 AUDIO    TITLE "Everything And More"    PERFORMER "Change"    ISRC 000000000000    FLAGS DCP    INDEX 00 04:27:00FILE "05 - Everything And More.wav" WAVE    INDEX 01 00:00:00  TRACK 06 AUDIO    TITLE "Sharing Your Love"    PERFORMER "Change"    ISRC 000000000000    FLAGS DCP    INDEX 00 04:18:22FILE "06 - Sharing Your Love.wav" WAVE    INDEX 01 00:00:00  TRACK 07 AUDIO    TITLE "Take You To Heaven"    PERFORMER "Change"    ISRC 000000000000    FLAGS DCP    INDEX 00 06:00:08FILE "07 - Take You To Heaven.wav" WAVE    INDEX 01 00:00:00  TRACK 08 AUDIO    TITLE "Keep On It"    PERFORMER "Change"    ISRC 000000000000    FLAGS DCP    INDEX 00 05:24:60FILE "08 - Keep On It.wav" WAVE    INDEX 01 00:00:00  TRACK 09 AUDIO    TITLE "You're My Number"    PERFORMER "Change"    ISRC 000000000000    FLAGS DCP    INDEX 00 05:35:50FILE "09 - You're My Number.wav" WAVE    INDEX 01 00:00:00  TRACK 10 AUDIO    TITLE "You're My Girl"    PERFORMER "Change"    ISRC 000000000000    FLAGS DCP    INDEX 00 04:18:27FILE "10 - You're My Girl.wav" WAVE    INDEX 01 00:00:00  TRACK 11 AUDIO    TITLE "The Very Best In You (Single Edit)"    PERFORMER "Change"    ISRC 000000000000    FLAGS DCP    INDEX 00 04:06:09FILE "11 - The Very Best In You (Single Edit).wav" WAVE    INDEX 01 00:00:00  TRACK 12 AUDIO    TITLE "Hard Times (Extended Version)"    PERFORMER "Change"    ISRC 000000000000    FLAGS DCP    INDEX 00 04:10:26FILE "12 - Hard Times (Extended Version).wav" WAVE    INDEX 01 00:00:00

CD4 This Is Your Time (1983) (00:54:59)

01. Got To Get Up (05:56)
02. This Is Your Time (05:47)
03. Angel (04:30)
04. Magical Night (06:10)
05. Stay'n Fit (05:33)
06. Tell Me Why (05:15)
07. You'll Never Realize (05:43)
08. Don't Wait Another Night (05:53)
Bonus Tracks:
09. Magical Night (Sigle Edit) (04:06)
10. Got To Get Up (Extended Version) (06:13)

Лог создания рипа

Exact Audio Copy V0.99 prebeta 5 from 4. May 2009
EAC extraction logfile from 5. January 2010, 20:09
Change / This Is Your Time
Used drive : Optiarc DVD RW AD-5170A Adapter: 0 ID: 1
Read mode : SecureUtilize accurate stream : YesDefeat audio cache : YesMake use of C2 pointers : No
Read offset correction : 48Overread into Lead-In and Lead-Out : NoFill up missing offset samples with silence : YesDelete leading and trailing silent blocks : NoNull samples used in CRC calculations : YesUsed interface : Installed external ASPI interfaceGap handling : Appended to previous track
Used output format : User Defined EncoderSelected bitrate : 128 kBit/sQuality : HighAdd ID3 tag : NoCommand line compressor : C:\Programmi\Exact Audio Copy\Flac\flac.exeAdditional command line options : -8 -V -T "artist=%a" -T "title=%t" -T "album=%g" -T "date=%y" -T "tracknumber=%n" -T "genre=%m" %s
TOC of the extracted CD
Track | Start | Length | Start sector | End sector --------------------------------------------------------- 1 | 0:00.00 | 5:55.63 | 0 | 26687 2 | 5:55.63 | 5:47.10 | 26688 | 52722 3 | 11:42.73 | 4:29.52 | 52723 | 72949 4 | 16:12.50 | 6:09.54 | 72950 | 100678 5 | 22:22.29 | 5:33.18 | 100679 | 125671 6 | 27:55.47 | 5:14.41 | 125672 | 149262 7 | 33:10.13 | 5:42.39 | 149263 | 174951 8 | 38:52.52 | 5:52.39 | 174952 | 201390 9 | 44:45.16 | 4:06.24 | 201391 | 219864 10 | 48:51.40 | 6:12.55 | 219865 | 247819
Track 1
Filename E:\WCD\Album Collection (FTE BOX 02)\Change - This Is Your Time\01 - Got To Get Up.wav
Pre-gap length 0:00:02.00
Peak level 100.0 % Track quality 100.0 % Test CRC 75C5DAD2 Copy CRC 75C5DAD2 Track not present in AccurateRip database Copy OK
Track 2
Filename E:\WCD\Album Collection (FTE BOX 02)\Change - This Is Your Time\02 - This Is Your Time.wav
Pre-gap length 0:00:02.00
Peak level 100.0 % Track quality 100.0 % Test CRC 43730378 Copy CRC 43730378 Track not present in AccurateRip database Copy OK
Track 3
Filename E:\WCD\Album Collection (FTE BOX 02)\Change - This Is Your Time\03 - Angel.wav
Pre-gap length 0:00:02.00
Peak level 100.0 % Track quality 100.0 % Test CRC 05D94391 Copy CRC 05D94391 Track not present in AccurateRip database Copy OK
Track 4
Filename E:\WCD\Album Collection (FTE BOX 02)\Change - This Is Your Time\04 - Magical Night.wav
Pre-gap length 0:00:02.00
Peak level 100.0 % Track quality 100.0 % Test CRC DE09BC3F Copy CRC DE09BC3F Track not present in AccurateRip database Copy OK
Track 5
Filename E:\WCD\Album Collection (FTE BOX 02)\Change - This Is Your Time\05 - Stay'n Fit.wav
Pre-gap length 0:00:02.00
Peak level 100.0 % Track quality 100.0 % Test CRC 52EEF558 Copy CRC 52EEF558 Track not present in AccurateRip database Copy OK
Track 6
Filename E:\WCD\Album Collection (FTE BOX 02)\Change - This Is Your Time\06 - Tell Me Why.wav
Pre-gap length 0:00:02.00
Peak level 100.0 % Track quality 100.0 % Test CRC D419B592 Copy CRC D419B592 Track not present in AccurateRip database Copy OK
Track 7
Filename E:\WCD\Album Collection (FTE BOX 02)\Change - This Is Your Time\07 - You'll Never Realize.wav
Pre-gap length 0:00:02.00
Peak level 100.0 % Track quality 100.0 % Test CRC 0B0FAB8C Copy CRC 0B0FAB8C Track not present in AccurateRip database Copy OK
Track 8
Filename E:\WCD\Album Collection (FTE BOX 02)\Change - This Is Your Time\08 - Don't Wait Another Night.wav
Pre-gap length 0:00:02.00
Peak level 100.0 % Track quality 100.0 % Test CRC 585A78EE Copy CRC 585A78EE Track not present in AccurateRip database Copy OK
Track 9
Filename E:\WCD\Album Collection (FTE BOX 02)\Change - This Is Your Time\09 - Magical Night (Sigle Edit).wav
Pre-gap length 0:00:02.00
Peak level 100.0 % Track quality 100.0 % Test CRC 7B6CF804 Copy CRC 7B6CF804 Track not present in AccurateRip database Copy OK
Track 10
Filename E:\WCD\Album Collection (FTE BOX 02)\Change - This Is Your Time\10 - Got To Get Up (Extended Version).wav
Pre-gap length 0:00:02.00
Peak level 100.0 % Track quality 100.0 % Test CRC E6C708BA Copy CRC E6C708BA Track not present in AccurateRip database Copy OK
None of the tracks are present in the AccurateRip database
No errors occurred
End of status report

Содержание индексной карты (.CUE)

REM GENRE FunkREM DATE 1983REM DISCID 9A0CE80AREM COMMENT "ExactAudioCopy v0.99pb5"PERFORMER "Change"TITLE "This Is Your Time"FILE "01 - Got To Get Up.wav" WAVE  TRACK 01 AUDIO    TITLE "Got To Get Up"    PERFORMER "Change"    ISRC 000000000000    FLAGS DCP    INDEX 01 00:00:00  TRACK 02 AUDIO    TITLE "This Is Your Time"    PERFORMER "Change"    ISRC 000000000000    FLAGS DCP    INDEX 00 05:53:63FILE "02 - This Is Your Time.wav" WAVE    INDEX 01 00:00:00  TRACK 03 AUDIO    TITLE "Angel"    PERFORMER "Change"    ISRC 000000000000    FLAGS DCP    INDEX 00 05:45:10FILE "03 - Angel.wav" WAVE    INDEX 01 00:00:00  TRACK 04 AUDIO    TITLE "Magical Night"    PERFORMER "Change"    ISRC 000000000000    FLAGS DCP    INDEX 00 04:27:52FILE "04 - Magical Night.wav" WAVE    INDEX 01 00:00:00  TRACK 05 AUDIO    TITLE "Stay'n Fit"    PERFORMER "Change"    ISRC 000000000000    FLAGS DCP    INDEX 00 06:07:54FILE "05 - Stay'n Fit.wav" WAVE    INDEX 01 00:00:00  TRACK 06 AUDIO    TITLE "Tell Me Why"    PERFORMER "Change"    ISRC 000000000000    FLAGS DCP    INDEX 00 05:31:18FILE "06 - Tell Me Why.wav" WAVE    INDEX 01 00:00:00  TRACK 07 AUDIO    TITLE "You'll Never Realize"    PERFORMER "Change"    ISRC 000000000000    FLAGS DCP    INDEX 00 05:12:41FILE "07 - You'll Never Realize.wav" WAVE    INDEX 01 00:00:00  TRACK 08 AUDIO    TITLE "Don't Wait Another Night"    PERFORMER "Change"    ISRC 000000000000    FLAGS DCP    INDEX 00 05:40:39FILE "08 - Don't Wait Another Night.wav" WAVE    INDEX 01 00:00:00  TRACK 09 AUDIO    TITLE "Magical Night (Sigle Edit)"    PERFORMER "Change"    ISRC 000000000000    FLAGS DCP    INDEX 00 05:50:39FILE "09 - Magical Night (Sigle Edit).wav" WAVE    INDEX 01 00:00:00  TRACK 10 AUDIO    TITLE "Got To Get Up (Extended Version)"    PERFORMER "Change"    ISRC 000000000000    FLAGS DCP    INDEX 00 04:04:24FILE "10 - Got To Get Up (Extended Version).wav" WAVE    INDEX 01 00:00:00

CD5 Turn On Your Radio (1985) (00:52:27)

01. Turn On Your Radio (05:21)
02. Let's Go Together (06:09)
03. Examination (05:36)
04. You'll Always Be A Part Of Me (05:20)
05. Oh What A Feeling (05:41)
06. Mutual Attraction (05:56)
07. Love The Way You Love Me (05:35)
08. If You Want My Love (05:22)
Bonus Tracks:
09. Turn On Your Radio (Single Edit) (03:25)
10. Let's Go Together (Single Edit) (04:09)

Лог создания рипа

Exact Audio Copy V0.99 prebeta 5 from 4. May 2009
EAC extraction logfile from 5. January 2010, 21:05
Change / Turn On Your Radio
Used drive : Optiarc DVD RW AD-5170A Adapter: 0 ID: 1
Read mode : SecureUtilize accurate stream : YesDefeat audio cache : YesMake use of C2 pointers : No
Read offset correction : 48Overread into Lead-In and Lead-Out : NoFill up missing offset samples with silence : YesDelete leading and trailing silent blocks : NoNull samples used in CRC calculations : YesUsed interface : Installed external ASPI interfaceGap handling : Appended to previous track
Used output format : User Defined EncoderSelected bitrate : 128 kBit/sQuality : HighAdd ID3 tag : NoCommand line compressor : C:\Programmi\Exact Audio Copy\Flac\flac.exeAdditional command line options : -8 -V -T "artist=%a" -T "title=%t" -T "album=%g" -T "date=%y" -T "tracknumber=%n" -T "genre=%m" %s
TOC of the extracted CD
Track | Start | Length | Start sector | End sector --------------------------------------------------------- 1 | 0:00.00 | 5:20.70 | 0 | 24069 2 | 5:20.70 | 6:08.62 | 24070 | 51731 3 | 11:29.57 | 5:35.74 | 51732 | 76930 4 | 17:05.56 | 5:20.13 | 76931 | 100943 5 | 22:25.69 | 5:40.42 | 100944 | 126485 6 | 28:06.36 | 5:56.35 | 126486 | 153220 7 | 34:02.71 | 5:35.05 | 153221 | 178350 8 | 39:38.01 | 5:21.44 | 178351 | 202469 9 | 44:59.45 | 3:24.60 | 202470 | 217829 10 | 48:24.30 | 4:08.58 | 217830 | 236487
Track 1
Filename E:\WCD\Album Collection (FTE BOX 02)\Change - Turn On Your Radio\01 - Turn On Your Radio.wav
Pre-gap length 0:00:02.00
Peak level 98.8 % Track quality 100.0 % Test CRC 4BE94B34 Copy CRC 4BE94B34 Accurately ripped (confidence 1) [7CA82549] Copy OK
Track 2
Filename E:\WCD\Album Collection (FTE BOX 02)\Change - Turn On Your Radio\02 - Let's Go Together.wav
Pre-gap length 0:00:02.00
Peak level 98.8 % Track quality 100.0 % Test CRC 19B647B5 Copy CRC 19B647B5 Accurately ripped (confidence 1) [582270E0] Copy OK
Track 3
Filename E:\WCD\Album Collection (FTE BOX 02)\Change - Turn On Your Radio\03 - Examination.wav
Pre-gap length 0:00:02.00
Peak level 100.0 % Track quality 100.0 % Test CRC 3127B42C Copy CRC 3127B42C Accurately ripped (confidence 1) [20177BB7] Copy OK
Track 4
Filename E:\WCD\Album Collection (FTE BOX 02)\Change - Turn On Your Radio\04 - You'll Always Be A Part Of Me.wav
Pre-gap length 0:00:02.00
Peak level 100.0 % Track quality 100.0 % Test CRC A1BC6F3A Copy CRC A1BC6F3A Accurately ripped (confidence 1) [7D67A10C] Copy OK
Track 5
Filename E:\WCD\Album Collection (FTE BOX 02)\Change - Turn On Your Radio\05 - Oh What A Feeling.wav
Pre-gap length 0:00:02.00
Peak level 98.8 % Track quality 100.0 % Test CRC 634A7D2A Copy CRC 634A7D2A Accurately ripped (confidence 1) [79458E5D] Copy OK
Track 6
Filename E:\WCD\Album Collection (FTE BOX 02)\Change - Turn On Your Radio\06 - Mutual Attraction.wav
Pre-gap length 0:00:02.00
Peak level 98.8 % Track quality 100.0 % Test CRC 08EB0394 Copy CRC 08EB0394 Accurately ripped (confidence 1) [87B17765] Copy OK
Track 7
Filename E:\WCD\Album Collection (FTE BOX 02)\Change - Turn On Your Radio\07 - Love The Way You Love Me.wav
Pre-gap length 0:00:02.00
Peak level 100.0 % Track quality 99.9 % Test CRC E081A664 Copy CRC E081A664 Accurately ripped (confidence 1) [23DE5CF6] Copy OK
Track 8
Filename E:\WCD\Album Collection (FTE BOX 02)\Change - Turn On Your Radio\08 - If You Want My Love.wav
Pre-gap length 0:00:02.00
Peak level 99.8 % Track quality 100.0 % Test CRC C17A1E0F Copy CRC C17A1E0F Accurately ripped (confidence 1) [00768C48] Copy OK
Track 9
Filename E:\WCD\Album Collection (FTE BOX 02)\Change - Turn On Your Radio\09 - Turn On Your Radio (Single Edit).wav
Pre-gap length 0:00:02.00
Peak level 98.9 % Track quality 100.0 % Test CRC CD80606A Copy CRC CD80606A Accurately ripped (confidence 1) [374E32B1] Copy OK
Track 10
Filename E:\WCD\Album Collection (FTE BOX 02)\Change - Turn On Your Radio\10 - Let's Go Together (Single Edit).wav
Pre-gap length 0:00:02.00
Peak level 100.0 % Track quality 100.0 % Test CRC 3EB85EFD Copy CRC 3EB85EFD Accurately ripped (confidence 1) [4A467C29] Copy OK
All tracks accurately ripped
No errors occurred
End of status report

Содержание индексной карты (.CUE)

REM GENRE FunkREM DATE 1985REM DISCID 7B0C510AREM COMMENT "ExactAudioCopy v0.99pb5"PERFORMER "Change"TITLE "Turn On Your Radio"FILE "01 - Turn On Your Radio.wav" WAVE  TRACK 01 AUDIO    TITLE "Turn On Your Radio"    PERFORMER "Change"    ISRC 000000000000    FLAGS DCP    INDEX 01 00:00:00  TRACK 02 AUDIO    TITLE "Let's Go Together"    PERFORMER "Change"    ISRC 000000000000    FLAGS DCP    INDEX 00 05:18:70FILE "02 - Let's Go Together.wav" WAVE    INDEX 01 00:00:00  TRACK 03 AUDIO    TITLE "Examination"    PERFORMER "Change"    ISRC 000000000000    FLAGS DCP    INDEX 00 06:06:62FILE "03 - Examination.wav" WAVE    INDEX 01 00:00:00  TRACK 04 AUDIO    TITLE "You'll Always Be A Part Of Me"    PERFORMER "Change"    ISRC 000000000000    FLAGS DCP    INDEX 00 05:33:74FILE "04 - You'll Always Be A Part Of Me.wav" WAVE    INDEX 01 00:00:00  TRACK 05 AUDIO    TITLE "Oh What A Feeling"    PERFORMER "Change"    ISRC 000000000000    FLAGS DCP    INDEX 00 05:18:13FILE "05 - Oh What A Feeling.wav" WAVE    INDEX 01 00:00:00  TRACK 06 AUDIO    TITLE "Mutual Attraction"    PERFORMER "Change"    ISRC 000000000000    FLAGS DCP    INDEX 00 05:38:42FILE "06 - Mutual Attraction.wav" WAVE    INDEX 01 00:00:00  TRACK 07 AUDIO    TITLE "Love The Way You Love Me"    PERFORMER "Change"    ISRC 000000000000    FLAGS DCP    INDEX 00 05:54:35FILE "07 - Love The Way You Love Me.wav" WAVE    INDEX 01 00:00:00  TRACK 08 AUDIO    TITLE "If You Want My Love"    PERFORMER "Change"    ISRC 000000000000    FLAGS DCP    INDEX 00 05:33:05FILE "08 - If You Want My Love.wav" WAVE    INDEX 01 00:00:00  TRACK 09 AUDIO    TITLE "Turn On Your Radio (Single Edit)"    PERFORMER "Change"    ISRC 000000000000    FLAGS DCP    INDEX 00 05:19:44FILE "09 - Turn On Your Radio (Single Edit).wav" WAVE    INDEX 01 00:00:00  TRACK 10 AUDIO    TITLE "Let's Go Together (Single Edit)"    PERFORMER "Change"    ISRC 000000000000    FLAGS DCP    INDEX 00 03:22:60FILE "10 - Let's Go Together (Single Edit).wav" WAVE    INDEX 01 00:00:00

If you like the topic, please click share to help develop our site.

To download the file disable ad blocking, and reload the page.

disable adblock How to disable ad blocking?

Download by magnet link 1.9 GB Download Torrent

Login using:

Similar topics



   
Current time is: 25-Jun 11:24 :: All times are UTC + 3