David Chesky - Jazz in the New Harmonic: Primal Scream- Жанр: Mainstream Jazz, Cool
Носитель: CD
Год издания: 2015
Издатель (лейбл): Chesky Records
Номер по каталогу: JD369
Аудиокодек: FLAC (*.flac)
Тип рипа: tracks+.cue
Продолжительность: 01:00:18
Источник: www
Наличие сканов в содержимом раздачи: нет--Bass – Peter Washington
Drums – Billy Drummond
Piano – David Chesky
Tenor Saxophone, Clarinet – Javon Jackson
Trumpet – Jeremy Pelt
--01. Check Point Charlie (07:30)
02. Cultural Treason (07:13)
03. Quiet Desperation (09:44)
04. Kill The Philharmonic (08:49)
05. Primal Scream (10:33)
06. Isolation (08:52)
07. Sleepless In New York (07:37)--

Лог создания рипа

X Lossless Decoder version 20181019 (151.1)
XLD extraction logfile from 2019-05-15 16:49:32 -0400
David Chesky / Jazz In The New Harmonic: Primal Scream
Used drive : HL-DT-ST DVD-RW GH41N (revision PQ05)Media type : Pressed CD
Ripper mode : XLD Secure RipperDisable audio cache : OK for the drive with a cache less than 1375KiBMake use of C2 pointers : NORead offset correction : 667Max retry count : 20Gap status : Analyzed, Appended (except HTOA)
TOC of the extracted CD Track | Start | Length | Start sector | End sector --------------------------------------------------------- 1 | 00:00:00 | 07:30:09 | 0 | 33758 2 | 07:30:09 | 07:13:00 | 33759 | 66233 3 | 14:43:09 | 09:44:00 | 66234 | 110033 4 | 24:27:09 | 08:49:00 | 110034 | 149708 5 | 33:16:09 | 10:33:00 | 149709 | 197183 6 | 43:49:09 | 08:52:00 | 197184 | 237083 7 | 52:41:09 | 07:37:59 | 237084 | 271417
AccurateRip Summary (DiscID: 001041ce-0062b54a-6a0e2207) Track 01 : OK (v2, confidence 5/5) Track 02 : OK (v2, confidence 5/5) Track 03 : OK (v2, confidence 5/5) Track 04 : OK (v2, confidence 5/5) Track 05 : OK (v2, confidence 5/5) Track 06 : OK (v2, confidence 5/5) Track 07 : OK (v2, confidence 5/5) ->All tracks accurately ripped.
All Tracks Album gain : 5.25 dB Peak : 0.967407 Statistics Read error : 0 Jitter error (maybe fixed) : 0 Retry sector count : 0 Damaged sector count : 0
Track 01 Filename : /Volumes/storage 1/David Chesky - Jazz In The New Harmonic- Primal Scream (2015) [FLAC]/01 Check Point Charlie.flac Pre-gap length : 00:02:00
Track gain : 5.69 dB Peak : 0.704529 CRC32 hash (test run) : 7AA12FB9 CRC32 hash : 7AA12FB9 CRC32 hash (skip zero) : 194E8AFC AccurateRip v1 signature : BD571053 AccurateRip v2 signature : D467DE87 ->Accurately ripped (v2, confidence 5/5) Statistics Read error : 0 Jitter error (maybe fixed) : 0 Retry sector count : 0 Damaged sector count : 0
Track 02 Filename : /Volumes/storage 1/David Chesky - Jazz In The New Harmonic- Primal Scream (2015) [FLAC]/02 Cultural Treason.flac
Track gain : 3.79 dB Peak : 0.936676 CRC32 hash (test run) : 744AF72C CRC32 hash : 744AF72C CRC32 hash (skip zero) : 321536CD AccurateRip v1 signature : FFBE1C14 AccurateRip v2 signature : EA0E0A4D ->Accurately ripped (v2, confidence 5/5) Statistics Read error : 0 Jitter error (maybe fixed) : 0 Retry sector count : 0 Damaged sector count : 0
Track 03 Filename : /Volumes/storage 1/David Chesky - Jazz In The New Harmonic- Primal Scream (2015) [FLAC]/03 Quiet Desperation.flac
Track gain : 5.95 dB Peak : 0.693909 CRC32 hash (test run) : 9EF78B42 CRC32 hash : 9EF78B42 CRC32 hash (skip zero) : E54E5999 AccurateRip v1 signature : D41106C4 AccurateRip v2 signature : D025E2B9 ->Accurately ripped (v2, confidence 5/5) Statistics Read error : 0 Jitter error (maybe fixed) : 0 Retry sector count : 0 Damaged sector count : 0
Track 04 Filename : /Volumes/storage 1/David Chesky - Jazz In The New Harmonic- Primal Scream (2015) [FLAC]/04 Kill The Philharmonic.flac
Track gain : 5.50 dB Peak : 0.967407 CRC32 hash (test run) : 323C9FC6 CRC32 hash : 323C9FC6 CRC32 hash (skip zero) : FBC57048 AccurateRip v1 signature : 752FF258 AccurateRip v2 signature : A0A9AA69 ->Accurately ripped (v2, confidence 5/5) Statistics Read error : 0 Jitter error (maybe fixed) : 0 Retry sector count : 0 Damaged sector count : 0
Track 05 Filename : /Volumes/storage 1/David Chesky - Jazz In The New Harmonic- Primal Scream (2015) [FLAC]/05 Primal Scream.flac
Track gain : 4.26 dB Peak : 0.905182 CRC32 hash (test run) : 372967EB CRC32 hash : 372967EB CRC32 hash (skip zero) : 3A215CAC AccurateRip v1 signature : FFF01FE0 AccurateRip v2 signature : A500719B ->Accurately ripped (v2, confidence 5/5) Statistics Read error : 0 Jitter error (maybe fixed) : 0 Retry sector count : 0 Damaged sector count : 0
Track 06 Filename : /Volumes/storage 1/David Chesky - Jazz In The New Harmonic- Primal Scream (2015) [FLAC]/06 Isolation.flac
Track gain : 7.35 dB Peak : 0.669861 CRC32 hash (test run) : 4B0F05ED CRC32 hash : 4B0F05ED CRC32 hash (skip zero) : 91BA4F3A AccurateRip v1 signature : 9D785520 AccurateRip v2 signature : 97ACD40F ->Accurately ripped (v2, confidence 5/5) Statistics Read error : 0 Jitter error (maybe fixed) : 0 Retry sector count : 0 Damaged sector count : 0
Track 07 Filename : /Volumes/storage 1/David Chesky - Jazz In The New Harmonic- Primal Scream (2015) [FLAC]/07 Sleepless In New York.flac
Track gain : 5.56 dB Peak : 0.706757 CRC32 hash (test run) : A9187726 CRC32 hash : A9187726 CRC32 hash (skip zero) : 46B9D851 AccurateRip v1 signature : 9A04093F AccurateRip v2 signature : AE2C32DE ->Accurately ripped (v2, confidence 5/5) Statistics Read error : 0 Jitter error (maybe fixed) : 0 Retry sector count : 0 Damaged sector count : 0
No errors occurred
End of status report
-----BEGIN XLD SIGNATURE-----1vJsBhFpgOxA2bwAZzleZbvmVLnSeabbyS4muTe_D0o5xaE7.1AcGkz2eMJ6ZlnAeVtBWee0lT1bFLx686rn_ulaVZoS4Ptz9gVO3yy-----END XLD SIGNATURE-----

Содержание индексной карты (.CUE)

TITLE "Jazz In The New Harmonic: Primal Scream"PERFORMER "David Chesky"REM GENRE "Jazz"REM DATE "2015"REM DISCID 6A0E2207REM REPLAYGAIN_ALBUM_GAIN 5.25 dBREM REPLAYGAIN_ALBUM_PEAK 0.967407FILE "01 Check Point Charlie.flac" WAVE  TRACK 01 AUDIO    TITLE "Check Point Charlie"    REM REPLAYGAIN_TRACK_GAIN 5.69 dB    REM REPLAYGAIN_TRACK_PEAK 0.704529    INDEX 01 00:00:00FILE "02 Cultural Treason.flac" WAVE  TRACK 02 AUDIO    TITLE "Cultural Treason"    REM REPLAYGAIN_TRACK_GAIN 3.79 dB    REM REPLAYGAIN_TRACK_PEAK 0.936676    INDEX 01 00:00:00FILE "03 Quiet Desperation.flac" WAVE  TRACK 03 AUDIO    TITLE "Quiet Desperation"    REM REPLAYGAIN_TRACK_GAIN 5.95 dB    REM REPLAYGAIN_TRACK_PEAK 0.693909    INDEX 01 00:00:00FILE "04 Kill The Philharmonic.flac" WAVE  TRACK 04 AUDIO    TITLE "Kill The Philharmonic"    REM REPLAYGAIN_TRACK_GAIN 5.50 dB    REM REPLAYGAIN_TRACK_PEAK 0.967407    INDEX 01 00:00:00FILE "05 Primal Scream.flac" WAVE  TRACK 05 AUDIO    TITLE "Primal Scream"    REM REPLAYGAIN_TRACK_GAIN 4.26 dB    REM REPLAYGAIN_TRACK_PEAK 0.905182    INDEX 01 00:00:00FILE "06 Isolation.flac" WAVE  TRACK 06 AUDIO    TITLE "Isolation"    REM REPLAYGAIN_TRACK_GAIN 7.35 dB    REM REPLAYGAIN_TRACK_PEAK 0.669861    INDEX 01 00:00:00FILE "07 Sleepless In New York.flac" WAVE  TRACK 07 AUDIO    TITLE "Sleepless In New York"    REM REPLAYGAIN_TRACK_GAIN 5.56 dB    REM REPLAYGAIN_TRACK_PEAK 0.706757    INDEX 01 00:00:00

If you like the topic, please click share to help develop our site.

To download the file disable ad blocking, and reload the page.

disable adblock How to disable ad blocking?

Download by magnet link 355 MB Download Torrent

Login using:

Similar topics



   
Current time is: 25-Jun 10:27 :: All times are UTC + 3