Foxy / Get Off
Жанр: Disco, Funk, Soul
Носитель: CD
Страна-производитель диска (релиза): UK
Год издания: 2013
Издатель (лейбл): Big Break Records
Номер по каталогу: CDBBR0241
Аудиокодек: FLAC (*.flac)
Тип рипа: tracks+.cue
Продолжительность: 00:53:24
Источник: awaxhome
Наличие сканов в содержимом раздачи: да
Треклист:
01 - Tena's Song
02 - Ready For Love
03 - Madamoiselle
04 - You
05 - Get Off
06 - Lucky Me
07 - Goin' Back To You
08 - It's Happening
09 - Get Off (12' Disco Version)
10 - Tena's Song (Instrumental Version)
11 - Get Off (Single Version)

Лог создания рипа

Exact Audio Copy V1.0 beta 3 from 29. August 2011
EAC extraction logfile from 16. October 2013, 23:52
Foxy / Get Off
Used drive : TSSTcorp CDDVDW Adapter: 0 ID: 0
Read mode : SecureUtilize accurate stream : YesDefeat audio cache : YesMake use of C2 pointers : No
Read offset correction : 6Overread into Lead-In and Lead-Out : NoFill up missing offset samples with silence : YesDelete leading and trailing silent blocks : NoNull samples used in CRC calculations : YesUsed interface : Native Win32 interface for Win NT & 2000Gap handling : Appended to previous track
Used output format : User Defined EncoderSelected bitrate : 128 kBit/sQuality : HighAdd ID3 tag : NoCommand line compressor : C:\Program Files (x86)\Exact Audio Copy\Flac\flac.exeAdditional command line options : -8 -V -T "ARTIST=%artist%" -T "TITLE=%title%" -T "ALBUM=%albumtitle%" -T "DATE=%year%" -T "TRACKNUMBER=%tracknr%" -T "TOTALTRACKS=%numtracks%" -T "GENRE=%genre%" -T "ALBUMARTIST=%albumartist%" -T "ALBUM ARTIST=%albumartist%" -T "COMMENT=EAC Secure Mode, Test & Copy, AccurateRip, FLAC -8" %source%
TOC of the extracted CD
Track | Start | Length | Start sector | End sector --------------------------------------------------------- 1 | 0:00.00 | 4:53.65 | 0 | 22039 2 | 4:53.65 | 4:00.01 | 22040 | 40040 3 | 8:53.66 | 4:47.07 | 40041 | 61572 4 | 13:40.73 | 6:17.29 | 61573 | 89876 5 | 19:58.27 | 4:02.65 | 89877 | 108091 6 | 24:01.17 | 6:45.12 | 108092 | 138478 7 | 30:46.29 | 5:41.16 | 138479 | 164069 8 | 36:27.45 | 3:34.10 | 164070 | 180129 9 | 40:01.55 | 3:32.48 | 180130 | 196077 10 | 43:34.28 | 4:09.08 | 196078 | 214760 11 | 47:43.36 | 5:44.25 | 214761 | 240585
Track 1
Filename C:\AddisistheGodFlac\01 - Tena's Song.wav
Pre-gap length 0:00:02.00
Peak level 96.1 % Extraction speed 2.8 X Track quality 100.0 % Test CRC FA40DB9E Copy CRC FA40DB9E Track not present in AccurateRip database Copy OK
Track 2
Filename C:\AddisistheGodFlac\02 - Ready For Love.wav
Peak level 96.1 % Extraction speed 2.5 X Track quality 99.9 % Test CRC 99BC29F8 Copy CRC 99BC29F8 Track not present in AccurateRip database Copy OK
Track 3
Filename C:\AddisistheGodFlac\03 - Madamoiselle.wav
Peak level 96.1 % Extraction speed 3.4 X Track quality 100.0 % Test CRC E5A35F0A Copy CRC E5A35F0A Track not present in AccurateRip database Copy OK
Track 4
Filename C:\AddisistheGodFlac\04 - You.wav
Peak level 96.1 % Extraction speed 3.8 X Track quality 100.0 % Test CRC 119A4B04 Copy CRC 119A4B04 Track not present in AccurateRip database Copy OK
Track 5
Filename C:\AddisistheGodFlac\05 - Get Off.wav
Pre-gap length 0:00:01.66
Peak level 96.1 % Extraction speed 3.9 X Track quality 100.0 % Test CRC B3924C0A Copy CRC B3924C0A Track not present in AccurateRip database Copy OK
Track 6
Filename C:\AddisistheGodFlac\06 - Lucky Me.wav
Peak level 96.1 % Extraction speed 4.5 X Track quality 100.0 % Test CRC A2B41842 Copy CRC A2B41842 Track not present in AccurateRip database Copy OK
Track 7
Filename C:\AddisistheGodFlac\07 - Goin' Back To You.wav
Pre-gap length 0:00:00.08
Peak level 96.1 % Extraction speed 4.6 X Track quality 100.0 % Test CRC CA2E5C30 Copy CRC CA2E5C30 Track not present in AccurateRip database Copy OK
Track 8
Filename C:\AddisistheGodFlac\08 - It's Happening.wav
Peak level 96.1 % Extraction speed 3.6 X Track quality 99.9 % Test CRC 8C16E29B Copy CRC 8C16E29B Track not present in AccurateRip database Copy OK
Track 9
Filename C:\AddisistheGodFlac\09 - Get Off (12' Disco Version).wav
Pre-gap length 0:00:03.09
Peak level 96.1 % Extraction speed 4.7 X Track quality 100.0 % Test CRC 83C01672 Copy CRC 83C01672 Track not present in AccurateRip database Copy OK
Track 10
Filename C:\AddisistheGodFlac\10 - Tena's Song (Instrumental Version).wav
Pre-gap length 0:00:01.29
Peak level 96.1 % Extraction speed 5.0 X Track quality 100.0 % Test CRC BD0F4DFE Copy CRC BD0F4DFE Track not present in AccurateRip database Copy OK
Track 11
Filename C:\AddisistheGodFlac\11 - Get Off (Single Version).wav
Pre-gap length 0:00:01.48
Peak level 96.1 % Extraction speed 5.4 X Track quality 100.0 % Test CRC F77F1175 Copy CRC F77F1175 Track not present in AccurateRip database Copy OK
None of the tracks are present in the AccurateRip database
No errors occurred
End of status report
==== Log checksum 151207FEF9287A3AEE4BDA3AB5527C400BD272599D252E71D05A21F718026651 ====

Содержание индексной карты (.CUE)

REM GENRE SoulREM DATE 1978REM DISCID 900C870BREM COMMENT "ExactAudioCopy v1.0b3"PERFORMER "Foxy"TITLE "Get Off"FILE "01 - Tena's Song.wav" WAVE  TRACK 01 AUDIO    TITLE "Tena's Song"    PERFORMER "Foxy"    INDEX 01 00:00:00FILE "02 - Ready For Love.wav" WAVE  TRACK 02 AUDIO    TITLE "Ready For Love"    PERFORMER "Foxy"    INDEX 01 00:00:00FILE "03 - Madamoiselle.wav" WAVE  TRACK 03 AUDIO    TITLE "Madamoiselle"    PERFORMER "Foxy"    INDEX 01 00:00:00FILE "04 - You.wav" WAVE  TRACK 04 AUDIO    TITLE "You"    PERFORMER "Foxy"    INDEX 01 00:00:00  TRACK 05 AUDIO    TITLE "Get Off"    PERFORMER "Foxy"    INDEX 00 06:15:38FILE "05 - Get Off.wav" WAVE    INDEX 01 00:00:00FILE "06 - Lucky Me.wav" WAVE  TRACK 06 AUDIO    TITLE "Lucky Me"    PERFORMER "Foxy"    INDEX 01 00:00:00  TRACK 07 AUDIO    TITLE "Goin' Back To You"    PERFORMER "Foxy"    INDEX 00 06:45:04FILE "07 - Goin' Back To You.wav" WAVE    INDEX 01 00:00:00FILE "08 - It's Happening.wav" WAVE  TRACK 08 AUDIO    TITLE "It's Happening"    PERFORMER "Foxy"    INDEX 01 00:00:00  TRACK 09 AUDIO    TITLE "Get Off (12' Disco Version)"    PERFORMER "Foxy"    INDEX 00 03:31:01FILE "09 - Get Off (12' Disco Version).wav" WAVE    INDEX 01 00:00:00  TRACK 10 AUDIO    TITLE "Tena's Song (Instrumental Version)"    PERFORMER "Foxy"    INDEX 00 03:31:19FILE "10 - Tena's Song (Instrumental Version).wav" WAVE    INDEX 01 00:00:00  TRACK 11 AUDIO    TITLE "Get Off (Single Version) "    PERFORMER "Foxy"    INDEX 00 04:07:35FILE "11 - Get Off (Single Version).wav" WAVE    INDEX 01 00:00:00

If you like the topic, please click share to help develop our site.

To download the file disable ad blocking, and reload the page.

disable adblock How to disable ad blocking?

Download by magnet link 403 MB Download Torrent

Login using:

Similar topics



   
Current time is: 25-Jun 11:04 :: All times are UTC + 3