Phil Fearon & Galaxy / All The Hits
Жанр: Disco / Soul / Funk
Носитель: CD
Страна-производитель диска (релиза): EU
Год издания: 2001
Издатель (лейбл): EMI Gold
Номер по каталогу: 532 9602, 7243 5 32960 2 5
Страна исполнителя (группы): Great Britain
Аудиокодек: FLAC (*.flac)
Тип рипа: tracks+.cue
Продолжительность: 01:13:08
Источник: интернет (неизвестен)
Наличие сканов в содержимом раздачи: да
Треклист:
01. Dancing Tight
02. I Can Prove It
03. Everybody's Laughing
04. This Kind Of Love (with Dee Galdes)
05. Do You Want More
06. Ain't Nothing But A House Party
07. Before You Throw Love Away
08. Nothing Is Too Good For You
09. All I Give To You
10. Still Thinking Of You
11. Anything You Want
12. Head Over Heels
13. You Don't Need A Reason
14. Fantasy Real
15. Wait Until Tonight (My Love)
16. What Do I Do
17. Dancing Tight (Album Version)
18. What Do I Do (Carnival Mix)

Лог создания рипа

Exact Audio Copy V0.99 prebeta 4 from 23. January 2008
EAC extraction logfile from 21. June 2010, 20:53
Phil Fearon & Galaxy / All The Hits
Used drive : ATAPI iHAS424 A Adapter: 1 ID: 1
Read mode : SecureUtilize accurate stream : YesDefeat audio cache : YesMake use of C2 pointers : No
Read offset correction : 6Overread into Lead-In and Lead-Out : NoFill up missing offset samples with silence : YesDelete leading and trailing silent blocks : NoNull samples used in CRC calculations : YesUsed interface : Native Win32 interface for Win NT & 2000Gap handling : Appended to previous track
Used output format : Internal WAV RoutinesSample format : 44.100 Hz; 16 Bit; Stereo
TOC of the extracted CD
Track | Start | Length | Start sector | End sector --------------------------------------------------------- 1 | 0:00.00 | 3:37.07 | 0 | 16281 2 | 3:37.07 | 4:00.08 | 16282 | 34289 3 | 7:37.15 | 3:41.47 | 34290 | 50911 4 | 11:18.62 | 4:17.55 | 50912 | 70241 5 | 15:36.42 | 5:30.50 | 70242 | 95041 6 | 21:07.17 | 3:22.37 | 95042 | 110228 7 | 24:29.54 | 4:30.56 | 110229 | 130534 8 | 29:00.35 | 3:53.15 | 130535 | 148024 9 | 32:53.50 | 4:34.70 | 148025 | 168644 10 | 37:28.45 | 4:18.30 | 168645 | 188024 11 | 41:47.00 | 3:53.72 | 188025 | 205571 12 | 45:40.72 | 3:53.40 | 205572 | 223086 13 | 49:34.37 | 4:05.08 | 223087 | 241469 14 | 53:39.45 | 4:01.35 | 241470 | 259579 15 | 57:41.05 | 3:44.62 | 259580 | 276441 16 | 61:25.67 | 3:30.35 | 276442 | 292226 17 | 64:56.27 | 4:24.70 | 292227 | 312096 18 | 69:21.22 | 3:47.00 | 312097 | 329121
Track 1
Filename C:\Users\Acid\Desktop\Phil Fearon & Galaxy - All The Hits\01. Phil Fearon & Galaxy – Dancing Tight.wav
Pre-gap length 0:00:02.00
Peak level 100.0 % Track quality 100.0 % Test CRC 1AD0E42F Copy CRC 1AD0E42F Cannot be verified as accurate (confidence 3) [D355CCEE], AccurateRip returned [BE76125E] Copy OK
Track 2
Filename C:\Users\Acid\Desktop\Phil Fearon & Galaxy - All The Hits\02. Phil Fearon & Galaxy – I Can Prove It.wav
Pre-gap length 0:00:02.73
Peak level 100.0 % Track quality 100.0 % Test CRC D5207491 Copy CRC D5207491 Cannot be verified as accurate (confidence 2) [1DF5BE1A], AccurateRip returned [8C519C7C] Copy OK
Track 3
Filename C:\Users\Acid\Desktop\Phil Fearon & Galaxy - All The Hits\03. Phil Fearon & Galaxy – Everybody's Laughing.wav
Pre-gap length 0:00:02.73
Peak level 100.0 % Track quality 100.0 % Test CRC 9ED79185 Copy CRC 9ED79185 Cannot be verified as accurate (confidence 2) [B580BBFC], AccurateRip returned [BAF3848E] Copy OK
Track 4
Filename C:\Users\Acid\Desktop\Phil Fearon & Galaxy - All The Hits\04. Phil Fearon & Galaxy – This Kind Of Love (with Dee Galdes).wav
Pre-gap length 0:00:02.73
Peak level 100.0 % Track quality 100.0 % Test CRC C7B37FAD Copy CRC C7B37FAD Cannot be verified as accurate (confidence 2) [67DEF735], AccurateRip returned [2B7470B5] Copy OK
Track 5
Filename C:\Users\Acid\Desktop\Phil Fearon & Galaxy - All The Hits\05. Phil Fearon & Galaxy – Do You Want More.wav
Pre-gap length 0:00:02.73
Peak level 100.0 % Track quality 100.0 % Test CRC F80770F1 Copy CRC F80770F1 Cannot be verified as accurate (confidence 2) [A47E6BE8], AccurateRip returned [537D47D8] Copy OK
Track 6
Filename C:\Users\Acid\Desktop\Phil Fearon & Galaxy - All The Hits\06. Phil Fearon & Galaxy – Ain't Nothing But A House Party.wav
Pre-gap length 0:00:02.73
Peak level 100.0 % Track quality 100.0 % Test CRC 09461131 Copy CRC 09461131 Cannot be verified as accurate (confidence 2) [1D0C991F], AccurateRip returned [C4733F91] Copy OK
Track 7
Filename C:\Users\Acid\Desktop\Phil Fearon & Galaxy - All The Hits\07. Phil Fearon & Galaxy – Before You Throw Love Away.wav
Pre-gap length 0:00:02.72
Peak level 100.0 % Track quality 100.0 % Test CRC 169297C1 Copy CRC 169297C1 Cannot be verified as accurate (confidence 2) [ADBCCD62], AccurateRip returned [FCE36342] Copy OK
Track 8
Filename C:\Users\Acid\Desktop\Phil Fearon & Galaxy - All The Hits\08. Phil Fearon & Galaxy – Nothing Is Too Good For You.wav
Pre-gap length 0:00:02.74
Peak level 100.0 % Track quality 100.0 % Test CRC 8B629A8B Copy CRC 8B629A8B Cannot be verified as accurate (confidence 2) [2D884213], AccurateRip returned [070D3E53] Copy OK
Track 9
Filename C:\Users\Acid\Desktop\Phil Fearon & Galaxy - All The Hits\09. Phil Fearon & Galaxy – All I Give To You.wav
Pre-gap length 0:00:02.73
Peak level 100.0 % Track quality 99.9 % Test CRC 8C759C0C Copy CRC 8C759C0C Cannot be verified as accurate (confidence 2) [CC1E38FF], AccurateRip returned [221B13B7] Copy OK
Track 10
Filename C:\Users\Acid\Desktop\Phil Fearon & Galaxy - All The Hits\10. Phil Fearon & Galaxy – Still Thinking Of You.wav
Pre-gap length 0:00:02.73
Peak level 100.0 % Track quality 100.0 % Test CRC AD167532 Copy CRC AD167532 Cannot be verified as accurate (confidence 2) [7F4D67BD], AccurateRip returned [0C066E09] Copy OK
Track 11
Filename C:\Users\Acid\Desktop\Phil Fearon & Galaxy - All The Hits\11. Phil Fearon & Galaxy – Anything You Want.wav
Pre-gap length 0:00:02.73
Peak level 100.0 % Track quality 100.0 % Test CRC 80F2A845 Copy CRC 80F2A845 Cannot be verified as accurate (confidence 2) [63F34036], AccurateRip returned [026420C4] Copy OK
Track 12
Filename C:\Users\Acid\Desktop\Phil Fearon & Galaxy - All The Hits\12. Phil Fearon & Galaxy – Head Over Heels.wav
Pre-gap length 0:00:02.73
Peak level 100.0 % Track quality 100.0 % Test CRC 01E19B70 Copy CRC 01E19B70 Cannot be verified as accurate (confidence 2) [33D4A5AE], AccurateRip returned [DE38AF3C] Copy OK
Track 13
Filename C:\Users\Acid\Desktop\Phil Fearon & Galaxy - All The Hits\13. Phil Fearon & Galaxy – You Don't Need A Reason.wav
Pre-gap length 0:00:02.73
Peak level 100.0 % Track quality 100.0 % Test CRC 6312452B Copy CRC 6312452B Cannot be verified as accurate (confidence 2) [74471722], AccurateRip returned [2D676EF4] Copy OK
Track 14
Filename C:\Users\Acid\Desktop\Phil Fearon & Galaxy - All The Hits\14. Phil Fearon & Galaxy – Fantasy Real.wav
Pre-gap length 0:00:02.73
Peak level 100.0 % Track quality 100.0 % Test CRC 05F9913C Copy CRC 05F9913C Cannot be verified as accurate (confidence 2) [7C9FFF81], AccurateRip returned [E3D02FB9] Copy OK
Track 15
Filename C:\Users\Acid\Desktop\Phil Fearon & Galaxy - All The Hits\15. Phil Fearon & Galaxy – Wait Until Tonight (My Love).wav
Pre-gap length 0:00:02.73
Peak level 100.0 % Track quality 100.0 % Test CRC 9FE22FCA Copy CRC 9FE22FCA Cannot be verified as accurate (confidence 2) [8EBDAB7C], AccurateRip returned [A5483EC6] Copy OK
Track 16
Filename C:\Users\Acid\Desktop\Phil Fearon & Galaxy - All The Hits\16. Phil Fearon & Galaxy – What Do I Do.wav
Pre-gap length 0:00:02.73
Peak level 100.0 % Track quality 100.0 % Test CRC 6FD35F00 Copy CRC 6FD35F00 Cannot be verified as accurate (confidence 3) [7D01B7DE], AccurateRip returned [5024EA4C] Copy OK
Track 17
Filename C:\Users\Acid\Desktop\Phil Fearon & Galaxy - All The Hits\17. Phil Fearon & Galaxy – Dancing Tight (Album Version).wav
Pre-gap length 0:00:02.73
Peak level 100.0 % Track quality 100.0 % Test CRC 60F0EDE7 Copy CRC 60F0EDE7 Cannot be verified as accurate (confidence 2) [88C3FC03], AccurateRip returned [9CCC9B13] Copy OK
Track 18
Filename C:\Users\Acid\Desktop\Phil Fearon & Galaxy - All The Hits\18. Phil Fearon & Galaxy – What Do I Do (Carnival Mix).wav
Pre-gap length 0:00:02.73
Peak level 100.0 % Track quality 100.0 % Test CRC 8ADC30C7 Copy CRC 8ADC30C7 Cannot be verified as accurate (confidence 2) [1A731619], AccurateRip returned [BCF3FB0D] Copy OK
No tracks could be verified as accurateYou may have a different pressing from the one(s) in the database
No errors occurred
End of status report

Содержание индексной карты (.CUE)

REM GENRE DISCOREM DATE 2001REM DISCID 20112412REM COMMENT "ExactAudioCopy v0.99pb4"PERFORMER "Phil Fearon & Galaxy"TITLE "All The Hits"FILE "01. Phil Fearon & Galaxy – Dancing Tight.wav" WAVE  TRACK 01 AUDIO    TITLE "Dancing Tight"    PERFORMER "Phil Fearon & Galaxy"    INDEX 01 00:00:00  TRACK 02 AUDIO    TITLE "I Can Prove It"    PERFORMER "Phil Fearon & Galaxy"    INDEX 00 03:34:27FILE "02. Phil Fearon & Galaxy – I Can Prove It.wav" WAVE    INDEX 01 00:00:00  TRACK 03 AUDIO    TITLE "Everybody's Laughing"    PERFORMER "Phil Fearon & Galaxy"    INDEX 00 03:57:28FILE "03. Phil Fearon & Galaxy – Everybody's Laughing.wav" WAVE    INDEX 01 00:00:00  TRACK 04 AUDIO    TITLE "This Kind Of Love (with Dee Galdes)"    PERFORMER "Phil Fearon & Galaxy"    INDEX 00 03:38:67FILE "04. Phil Fearon & Galaxy – This Kind Of Love (with Dee Galdes).wav" WAVE    INDEX 01 00:00:00  TRACK 05 AUDIO    TITLE "Do You Want More"    PERFORMER "Phil Fearon & Galaxy"    INDEX 00 04:15:00FILE "05. Phil Fearon & Galaxy – Do You Want More.wav" WAVE    INDEX 01 00:00:00  TRACK 06 AUDIO    TITLE "Ain't Nothing But A House Party"    PERFORMER "Phil Fearon & Galaxy"    INDEX 00 05:27:70FILE "06. Phil Fearon & Galaxy – Ain't Nothing But A House Party.wav" WAVE    INDEX 01 00:00:00  TRACK 07 AUDIO    TITLE "Before You Throw Love Away"    PERFORMER "Phil Fearon & Galaxy"    INDEX 00 03:19:58FILE "07. Phil Fearon & Galaxy – Before You Throw Love Away.wav" WAVE    INDEX 01 00:00:00  TRACK 08 AUDIO    TITLE "Nothing Is Too Good For You"    PERFORMER "Phil Fearon & Galaxy"    INDEX 00 04:28:00FILE "08. Phil Fearon & Galaxy – Nothing Is Too Good For You.wav" WAVE    INDEX 01 00:00:00  TRACK 09 AUDIO    TITLE "All I Give To You"    PERFORMER "Phil Fearon & Galaxy"    INDEX 00 03:50:35FILE "09. Phil Fearon & Galaxy – All I Give To You.wav" WAVE    INDEX 01 00:00:00  TRACK 10 AUDIO    TITLE "Still Thinking Of You"    PERFORMER "Phil Fearon & Galaxy"    INDEX 00 04:32:15FILE "10. Phil Fearon & Galaxy – Still Thinking Of You.wav" WAVE    INDEX 01 00:00:00  TRACK 11 AUDIO    TITLE "Anything You Want"    PERFORMER "Phil Fearon & Galaxy"    INDEX 00 04:15:50FILE "11. Phil Fearon & Galaxy – Anything You Want.wav" WAVE    INDEX 01 00:00:00  TRACK 12 AUDIO    TITLE "Head Over Heels"    PERFORMER "Phil Fearon & Galaxy"    INDEX 00 03:51:17FILE "12. Phil Fearon & Galaxy – Head Over Heels.wav" WAVE    INDEX 01 00:00:00  TRACK 13 AUDIO    TITLE "You Don't Need A Reason"    PERFORMER "Phil Fearon & Galaxy"    INDEX 00 03:50:60FILE "13. Phil Fearon & Galaxy – You Don't Need A Reason.wav" WAVE    INDEX 01 00:00:00  TRACK 14 AUDIO    TITLE "Fantasy Real"    PERFORMER "Phil Fearon & Galaxy"    INDEX 00 04:02:28FILE "14. Phil Fearon & Galaxy – Fantasy Real.wav" WAVE    INDEX 01 00:00:00  TRACK 15 AUDIO    TITLE "Wait Until Tonight (My Love)"    PERFORMER "Phil Fearon & Galaxy"    INDEX 00 03:58:55FILE "15. Phil Fearon & Galaxy – Wait Until Tonight (My Love).wav" WAVE    INDEX 01 00:00:00  TRACK 16 AUDIO    TITLE "What Do I Do"    PERFORMER "Phil Fearon & Galaxy"    INDEX 00 03:42:07FILE "16. Phil Fearon & Galaxy – What Do I Do.wav" WAVE    INDEX 01 00:00:00  TRACK 17 AUDIO    TITLE "Dancing Tight (Album Version)"    PERFORMER "Phil Fearon & Galaxy"    INDEX 00 03:27:55FILE "17. Phil Fearon & Galaxy – Dancing Tight (Album Version).wav" WAVE    INDEX 01 00:00:00  TRACK 18 AUDIO    TITLE "What Do I Do? (Carnival Mix)"    PERFORMER "Phil Fearon & Galaxy"    INDEX 00 04:22:15FILE "18. Phil Fearon & Galaxy – What Do I Do  (Carnival Mix).wav" WAVE    INDEX 01 00:00:00

Лог проверки качества

AUDIOCHECKER v2.0 beta (build 457) - by Dester - [email protected]~~~~~~~~~~~~~~~~~~~~~~~~~~~~~~~~~~-=== DO NOT EDIT THIS FILE! ===-
Path: ...\Phil Fearon & Galaxy - 2001 - All The Hits (EMI Gold 532 9602, 7243 5 32960 2 5, EU)
01 -=- 01. Phil Fearon & Galaxy – Dancing Tight.flac -=- CDDA (100%)02 -=- 02. Phil Fearon & Galaxy – I Can Prove It.flac -=- MPEG (95%)03 -=- 03. Phil Fearon & Galaxy – Everybody's Laughing.flac -=- CDDA (100%)04 -=- 04. Phil Fearon & Galaxy – This Kind Of Love (with Dee Galdes).flac -=- CDDA (100%)05 -=- 05. Phil Fearon & Galaxy – Do You Want More.flac -=- CDDA (100%)06 -=- 06. Phil Fearon & Galaxy – Ain't Nothing But A House Party.flac -=- CDDA (100%)07 -=- 07. Phil Fearon & Galaxy – Before You Throw Love Away.flac -=- CDDA (100%)08 -=- 08. Phil Fearon & Galaxy – Nothing Is Too Good For You.flac -=- CDDA (100%)09 -=- 09. Phil Fearon & Galaxy – All I Give To You.flac -=- CDDA (100%)10 -=- 10. Phil Fearon & Galaxy – Still Thinking Of You.flac -=- CDDA (100%)11 -=- 11. Phil Fearon & Galaxy – Anything You Want.flac -=- CDDA (99%)12 -=- 12. Phil Fearon & Galaxy – Head Over Heels.flac -=- CDDA (100%)13 -=- 13. Phil Fearon & Galaxy – You Don't Need A Reason.flac -=- CDDA (100%)14 -=- 14. Phil Fearon & Galaxy – Fantasy Real.flac -=- CDDA (100%)15 -=- 15. Phil Fearon & Galaxy – Wait Until Tonight (My Love).flac -=- CDDA (100%)16 -=- 16. Phil Fearon & Galaxy – What Do I Do.flac -=- CDDA (100%)17 -=- 17. Phil Fearon & Galaxy – Dancing Tight (Album Version).flac -=- CDDA (100%)18 -=- 18. Phil Fearon & Galaxy – What Do I Do (Carnival Mix).flac -=- CDDA (100%)
Summary 94,67% CDDA
4514516

Скриншот спектра частот

CUETools Log

[CUETools log; Date: 16.05.2019 23:43:29; Version: 2.1.5][CTDB TOCID: 9IY6Lj1xng_BSlRr0p62q0Y_r2M-] found.        [ CTDBID ] Status        [f065480f] (2/2) Accurately rippedTrack | CTDB Status  1   | (2/2) Accurately ripped  2   | (2/2) Accurately ripped  3   | (2/2) Accurately ripped  4   | (2/2) Accurately ripped  5   | (2/2) Accurately ripped  6   | (2/2) Accurately ripped  7   | (2/2) Accurately ripped  8   | (2/2) Accurately ripped  9   | (2/2) Accurately ripped 10   | (2/2) Accurately ripped 11   | (2/2) Accurately ripped 12   | (2/2) Accurately ripped 13   | (2/2) Accurately ripped 14   | (2/2) Accurately ripped 15   | (2/2) Accurately ripped 16   | (2/2) Accurately ripped 17   | (2/2) Accurately ripped 18   | (2/2) Accurately ripped[AccurateRip ID: 003017d0-0281e2d8-20112412] found.Track   [  CRC   |   V2   ] Status 01     [d355ccee|c41c9da1] (03+03/14) Accurately ripped 02     [1df5be1a|0e8c8a93] (03+03/13) Accurately ripped 03     [b580bbfc|1cc741a0] (03+03/13) Accurately ripped 04     [67def735|e04146a3] (03+03/14) Accurately ripped 05     [a47e6be8|bdc8d7fb] (03+03/14) Accurately ripped 06     [1d0c991f|14292eff] (03+03/13) Accurately ripped 07     [adbccd62|fb800885] (03+03/13) Accurately ripped 08     [2d884213|9f854f3f] (03+03/13) Accurately ripped 09     [cc1e38ff|9b78dc86] (03+03/14) Accurately ripped 10     [7f4d67bd|7a4ac46e] (03+03/14) Accurately ripped 11     [63f34036|1633615f] (03+03/14) Accurately ripped 12     [33d4a5ae|ee3722f8] (03+03/13) Accurately ripped 13     [74471722|a2852709] (03+03/13) Accurately ripped 14     [7c9fff81|70da19a9] (03+03/13) Accurately ripped 15     [8ebdab7c|5c243836] (03+03/13) Accurately ripped 16     [7d01b7de|922d9d23] (03+03/14) Accurately ripped 17     [88c3fc03|aca84d8c] (03+03/13) Accurately ripped 18     [1a731619|6d2e5023] (03+02/12) Accurately rippedOffsetted by 86: 01     [be76125e] (03/14) Accurately ripped 02     [8c519c7c] (02/13) Accurately ripped 03     [baf3848e] (02/13) Accurately ripped 04     [2b7470b5] (03/14) Accurately ripped 05     [537d47d8] (03/14) Accurately ripped 06     [c4733f91] (02/13) Accurately ripped 07     [fce36342] (02/13) Accurately ripped 08     [070d3e53] (02/13) Accurately ripped 09     [221b13b7] (03/14) Accurately ripped 10     [0c066e09] (03/14) Accurately ripped 11     [026420c4] (03/14) Accurately ripped 12     [de38af3c] (02/13) Accurately ripped 13     [2d676ef4] (02/13) Accurately ripped 14     [e3d02fb9] (03/13) Accurately ripped 15     [a5483ec6] (03/13) Accurately ripped 16     [5024ea4c] (04/14) Accurately ripped 17     [9ccc9b13] (03/13) Accurately ripped 18     [bcf3fb0d] (03/12) Accurately ripped
Track Peak [ CRC32 ] [W/O NULL] [ LOG ] -- 100,0 [2D9411F8] [A47F9009] 01 100,0 [1AD0E42F] [026F181E] CRC32 02 100,0 [D5207491] [EA12405E] CRC32 03 100,0 [9ED79185] [CB89301C] CRC32 04 100,0 [C7B37FAD] [4FD804F6] CRC32 05 100,0 [F80770F1] [0F282155] CRC32 06 100,0 [09461131] [F8D6D89E] CRC32 07 100,0 [169297C1] [19DA461F] CRC32 08 100,0 [8B629A8B] [4C45F677] CRC32 09 100,0 [8C759C0C] [41CC1BA5] CRC32 10 100,0 [AD167532] [82FA02E8] CRC32 11 100,0 [80F2A845] [4280E22F] CRC32 12 100,0 [01E19B70] [19DF084E] CRC32 13 100,0 [6312452B] [A50E24C0] CRC32 14 100,0 [05F9913C] [4B081B89] CRC32 15 100,0 [9FE22FCA] [88C83AE5] CRC32 16 100,0 [6FD35F00] [5ED63552] CRC32 17 100,0 [60F0EDE7] [F80E493D] CRC32 18 100,0 [8ADC30C7] [81AF56DB] CRC32

DR

foobar2000 1.4.2 / Dynamic Range Meter 1.1.1log date: 2019-05-16 23:41:44
--------------------------------------------------------------------------------Analyzed: Phil Fearon & Galaxy / All The Hits--------------------------------------------------------------------------------
DR Peak RMS Duration Track--------------------------------------------------------------------------------DR10 0.00 dB -12.11 dB 3:37 01-Dancing TightDR12 0.00 dB -13.35 dB 4:00 02-I Can Prove ItDR11 0.00 dB -12.58 dB 3:42 03-Everybody's LaughingDR10 0.00 dB -11.36 dB 4:18 04-This Kind Of Love (With Dee Galdes)DR11 0.00 dB -13.13 dB 5:31 05-Do You Want MoreDR11 0.00 dB -12.35 dB 3:22 06-Ain't Nothing But A House PartyDR9 0.00 dB -12.09 dB 4:31 07-Before You Throw Love AwayDR10 0.00 dB -11.66 dB 3:53 08-Nothing Is Too Good For YouDR11 0.00 dB -12.46 dB 4:35 09-All I Give To YouDR10 0.00 dB -12.22 dB 4:18 10-Still Thinking Of YouDR12 0.00 dB -13.26 dB 3:54 11-Anything You WantDR12 0.00 dB -13.65 dB 3:54 12-Head Over HeelsDR10 0.00 dB -10.95 dB 4:05 13-You Don't Need A ReasonDR9 0.00 dB -10.52 dB 4:01 14-Fantasy RealDR9 0.00 dB -10.27 dB 3:45 15-Wait Until Tonight (My Love)DR10 0.00 dB -11.33 dB 3:30 16-What Do I DoDR9 0.00 dB -10.08 dB 4:25 17-Dancing Tight (Album Version)DR10 0.00 dB -11.42 dB 3:47 18-What Do I Do (Carnival Mix)--------------------------------------------------------------------------------
Number of tracks: 18Official DR value: DR10
Samplerate: 44100 HzChannels: 2Bits per sample: 16Bitrate: 1030 kbpsCodec: FLAC================================================================================

If you like the topic, please click share to help develop our site.

To download the file disable ad blocking, and reload the page.

disable adblock How to disable ad blocking?

Download by magnet link 528 MB Download Torrent

Login using:

Similar topics



   
Current time is: 25-Jun 11:02 :: All times are UTC + 3