The Dynamic Superiors / The Dynamic Superiors / Pure Pleasure
Жанр: Disco, Soul, Funk
Носитель: CD
Страна-производитель диска (релиза): UK
Год издания: 2010
Издатель (лейбл): Soul Music.com Records
Номер по каталогу: SMCR2 5003
Аудиокодек: FLAC (*.flac)
Тип рипа: tracks+.cue
Продолжительность: 01:12:46
Источник: awaxhome
Наличие сканов в содержимом раздачи: да
Треклист:
"The Dynamic Superiors" (1975)
01. Shoe Shoe Shine (03:46)
02. Soon (03:28)
03. Leave It Alone (03:40)
04. Don't Send Nobody Else (03:38)
05. Romeo (03:43)
06. Star Of My Life (03:42)
07. Cry When You Want To (04:16)
08. I Got Away (02:25)
09. One-Nighter (04:01)
10. Release Me (03:26)
"Pure Pleasure" (1975)
11. Deception (04:53)
12. Pleasure (03:39)
13. Nobody's Gonna Change Me (05:31)
14. Feeling Mellow (04:13)
15. Face The Music (03:11)
16. Hit And Run Lovers (04:09)
17. A Better Way (03:41)
18. Don't Give Up On Me Baby (03:07)
19. Ain't Nothing Like The Real Thing (04:17)

Лог создания рипа

Exact Audio Copy V1.3 from 2. September 2016
EAC extraction logfile from 12. June 2018, 18:41
The Dynamic Superiors / The Dynamic Superiors & Pure Pleasure
Used drive : PIONEER BD-RW BDR-208D Adapter: 1 ID: 0
Read mode : SecureUtilize accurate stream : YesDefeat audio cache : YesMake use of C2 pointers : No
Read offset correction : 667Overread into Lead-In and Lead-Out : NoFill up missing offset samples with silence : YesDelete leading and trailing silent blocks : NoNull samples used in CRC calculations : YesUsed interface : Native Win32 interface for Win NT & 2000
Used output format : Internal WAV RoutinesSample format : 44.100 Hz; 16 Bit; Stereo
TOC of the extracted CD
Track | Start | Length | Start sector | End sector --------------------------------------------------------- 1 | 0:00.00 | 3:45.59 | 0 | 16933 2 | 3:45.59 | 3:28.10 | 16934 | 32543 3 | 7:13.69 | 3:40.30 | 32544 | 49073 4 | 10:54.24 | 3:38.13 | 49074 | 65436 5 | 14:32.37 | 3:42.47 | 65437 | 82133 6 | 18:15.09 | 3:42.26 | 82134 | 98809 7 | 21:57.35 | 4:16.19 | 98810 | 118028 8 | 26:13.54 | 2:24.46 | 118029 | 128874 9 | 28:38.25 | 4:00.69 | 128875 | 146943 10 | 32:39.19 | 3:26.21 | 146944 | 162414 11 | 36:05.40 | 4:52.42 | 162415 | 184356 12 | 40:58.07 | 3:39.14 | 184357 | 200795 13 | 44:37.21 | 5:30.69 | 200796 | 225614 14 | 50:08.15 | 4:13.28 | 225615 | 244617 15 | 54:21.43 | 3:10.58 | 244618 | 258925 16 | 57:32.26 | 4:09.35 | 258926 | 277635 17 | 61:41.61 | 3:41.31 | 277636 | 294241 18 | 65:23.17 | 3:06.58 | 294242 | 308249 19 | 68:30.00 | 4:16.40 | 308250 | 327489
Range status and errors
Selected range
Filename D:\BlondStyle\The Dynamic Superiors & Pure Pleasure.wav
Peak level 100.0 % Extraction speed 4.4 X Range quality 100.0 % Test CRC 48E74D7D Copy CRC 48E74D7D Copy OK
No errors occurred
AccurateRip summary
Track 1 accurately ripped (confidence 6) [30474C33] (AR v2)Track 2 accurately ripped (confidence 6) [18E9E7EB] (AR v2)Track 3 accurately ripped (confidence 6) [7595072F] (AR v2)Track 4 accurately ripped (confidence 6) [0A2CB14B] (AR v2)Track 5 accurately ripped (confidence 6) [609D7AEE] (AR v2)Track 6 accurately ripped (confidence 6) [80047F5E] (AR v2)Track 7 accurately ripped (confidence 6) [A95C0208] (AR v2)Track 8 accurately ripped (confidence 6) [B6481106] (AR v2)Track 9 accurately ripped (confidence 7) [ED84C420] (AR v2)Track 10 accurately ripped (confidence 6) [622139EC] (AR v2)Track 11 accurately ripped (confidence 6) [42C3D80B] (AR v2)Track 12 accurately ripped (confidence 6) [D7B1BB5F] (AR v2)Track 13 accurately ripped (confidence 6) [8BBC3F63] (AR v2)Track 14 accurately ripped (confidence 6) [A79CD120] (AR v2)Track 15 accurately ripped (confidence 6) [91CE79E3] (AR v2)Track 16 accurately ripped (confidence 6) [65534722] (AR v2)Track 17 accurately ripped (confidence 6) [A818BFF9] (AR v2)Track 18 accurately ripped (confidence 6) [12B4353A] (AR v2)Track 19 accurately ripped (confidence 6) [785173E4] (AR v2)
All tracks accurately ripped
End of status report
---- CUETools DB Plugin V2.1.6
[CTDB TOCID: cEqMxMi3tP8gYyeAHIYmr_QIs.Y-] foundSubmit result: cEqMxMi3tP8gYyeAHIYmr_QIs.Y- has been confirmedTrack | CTDB Status 1 | (5/5) Accurately ripped 2 | (5/5) Accurately ripped 3 | (5/5) Accurately ripped 4 | (5/5) Accurately ripped 5 | (5/5) Accurately ripped 6 | (5/5) Accurately ripped 7 | (5/5) Accurately ripped 8 | (5/5) Accurately ripped 9 | (5/5) Accurately ripped 10 | (5/5) Accurately ripped 11 | (5/5) Accurately ripped 12 | (5/5) Accurately ripped 13 | (5/5) Accurately ripped 14 | (5/5) Accurately ripped 15 | (5/5) Accurately ripped 16 | (5/5) Accurately ripped 17 | (5/5) Accurately ripped 18 | (5/5) Accurately ripped 19 | (5/5) Accurately ripped
==== Log checksum 1ECFD55C6D74B3A3EB310EA2E15544FAE4BE56EF0369E73AA96F507C88C20AEE ====

Содержание индексной карты (.CUE)

REM GENRE "R&B, Soul/Funk, Motown"REM DATE 1975REM DISCID 08110E13REM COMMENT "ExactAudioCopy v1.3"PERFORMER "The Dynamic Superiors"TITLE "The Dynamic Superiors & Pure Pleasure"REM COMPOSER ""FILE "The Dynamic Superiors & Pure Pleasure.flac" WAVE  TRACK 01 AUDIO    TITLE "Shoe Shoe Shine"    PERFORMER "The Dynamic Superiors"    REM COMPOSER ""    INDEX 01 00:00:00  TRACK 02 AUDIO    TITLE "Soon"    PERFORMER "The Dynamic Superiors"    REM COMPOSER ""    INDEX 01 03:45:59  TRACK 03 AUDIO    TITLE "Leave It Alone"    PERFORMER "The Dynamic Superiors"    REM COMPOSER ""    INDEX 01 07:13:69  TRACK 04 AUDIO    TITLE "Don't Send Nobody Else"    PERFORMER "The Dynamic Superiors"    REM COMPOSER ""    INDEX 01 10:54:24  TRACK 05 AUDIO    TITLE "Romeo"    PERFORMER "The Dynamic Superiors"    REM COMPOSER ""    INDEX 01 14:32:37  TRACK 06 AUDIO    TITLE "Star Of My Life"    PERFORMER "The Dynamic Superiors"    REM COMPOSER ""    INDEX 01 18:15:09  TRACK 07 AUDIO    TITLE "Cry When You Want To"    PERFORMER "The Dynamic Superiors"    REM COMPOSER ""    INDEX 01 21:57:35  TRACK 08 AUDIO    TITLE "I Got Away"    PERFORMER "The Dynamic Superiors"    REM COMPOSER ""    INDEX 01 26:13:54  TRACK 09 AUDIO    TITLE "One-Nighter"    PERFORMER "The Dynamic Superiors"    REM COMPOSER ""    INDEX 01 28:38:25  TRACK 10 AUDIO    TITLE "Release Me"    PERFORMER "The Dynamic Superiors"    REM COMPOSER ""    INDEX 01 32:39:19  TRACK 11 AUDIO    TITLE "Deception"    PERFORMER "The Dynamic Superiors"    REM COMPOSER ""    INDEX 01 36:05:40  TRACK 12 AUDIO    TITLE "Pleasure"    PERFORMER "The Dynamic Superiors"    REM COMPOSER ""    INDEX 01 40:58:07  TRACK 13 AUDIO    TITLE "Nobody's Gonna Change Me"    PERFORMER "The Dynamic Superiors"    REM COMPOSER ""    INDEX 01 44:37:21  TRACK 14 AUDIO    TITLE "Feeling Mellow"    PERFORMER "The Dynamic Superiors"    REM COMPOSER ""    INDEX 01 50:08:15  TRACK 15 AUDIO    TITLE "Face The Music"    PERFORMER "The Dynamic Superiors"    REM COMPOSER ""    INDEX 01 54:21:43  TRACK 16 AUDIO    TITLE "Hit And Run Lovers"    PERFORMER "The Dynamic Superiors"    REM COMPOSER ""    INDEX 01 57:32:26  TRACK 17 AUDIO    TITLE "A Better Way"    PERFORMER "The Dynamic Superiors"    REM COMPOSER ""    INDEX 01 61:41:61  TRACK 18 AUDIO    TITLE "Don't Give Up On Me Baby"    PERFORMER "The Dynamic Superiors"    REM COMPOSER ""    INDEX 01 65:23:17  TRACK 19 AUDIO    TITLE "Ain't Nothing Like The Real Thing"    PERFORMER "The Dynamic Superiors"    REM COMPOSER ""    INDEX 01 68:30:00

Лог DR

foobar2000 1.4 beta 13 / Dynamic Range Meter 1.1.1log date: 2018-06-12 22:21:02
--------------------------------------------------------------------------------Analyzed: The Dynamic Superiors / The Dynamic Superiors & Pure Pleasure--------------------------------------------------------------------------------
DR Peak RMS Duration Track--------------------------------------------------------------------------------DR10 -0.71 dB -13.59 dB 3:46 01-Shoe Shoe ShineDR11 -0.71 dB -14.01 dB 3:28 02-SoonDR11 -0.71 dB -14.46 dB 3:40 03-Leave It AloneDR9 -0.62 dB -12.64 dB 3:38 04-Don't Send Nobody ElseDR9 -0.70 dB -13.62 dB 3:43 05-RomeoDR10 0.00 dB -13.91 dB 3:42 06-Star Of My LifeDR11 0.00 dB -13.98 dB 4:16 07-Cry When You Want ToDR10 0.00 dB -12.92 dB 2:25 08-I Got AwayDR12 0.00 dB -15.82 dB 4:01 09-One-NighterDR11 0.00 dB -13.49 dB 3:26 10-Release MeDR13 0.00 dB -15.33 dB 4:53 11-DeceptionDR13 0.00 dB -15.85 dB 3:39 12-PleasureDR13 0.00 dB -14.80 dB 5:31 13-Nobody's Gonna Change MeDR13 0.00 dB -16.13 dB 4:13 14-Feeling MellowDR12 0.00 dB -14.35 dB 3:11 15-Face The MusicDR13 0.00 dB -15.53 dB 4:09 16-Hit And Run LoversDR12 0.00 dB -15.70 dB 3:41 17-A Better WayDR12 0.00 dB -14.80 dB 3:07 18-Don't Give Up On Me BabyDR12 0.00 dB -16.07 dB 4:17 19-Ain't Nothing Like The Real Thing--------------------------------------------------------------------------------
Number of tracks: 19Official DR value: DR12
Samplerate: 44100 HzChannels: 2Bits per sample: 16Bitrate: 815 kbpsCodec: FLAC================================================================================

If you like the topic, please click share to help develop our site.

To download the file disable ad blocking, and reload the page.

disable adblock How to disable ad blocking?

Download by magnet link 481 MB Download Torrent

Login using:

Similar topics



   
Current time is: 25-Jun 11:37 :: All times are UTC + 3