Collection
Жанр: Gothic/Industrial Metal, NDH Носитель: CD
Страна-производитель диска (релиза): Germany, Austria Год издания: 2012-2018
Страна исполнителя (группы): Germany Аудиокодек: FLAC (*.flac)
Тип рипа: image+.cue Источник: собственные рипы
Наличие сканов в содержимом раздачи: да
Full Length Albums

2012: Todsünde 8

Издатель (лейбл): NoCut
Номер по каталогу: NOCUT0612
Продолжительность: 01:13:54
01. Allein 04:32
02. Engel der Vernichtung 04:00
03. Das Belgische Inferno 03:49
04. Auf Sturm 04:49
05. Während wir uns verlieren 03:51
06. Unzucht 04:43
07. Meine Liebe 04:14
08. Todsünde 8 04:00
09. Der letzte Tanz 05:51
10. Deine Zeit läuft ab 04:21
11. Ungesicht 02:47
12. Schwarzes Blut 04:02
13. Wie alles anfing 05:38
Bonus:
14. Kleine geile Nonne 03:30
15. Engel der Vernichtung (Marc Van Linden Remix) 05:04
16. Auf Sturm (Gecko Sector Remix) 04:06
17. Meine Liebe (Mono Inc. Remix) 04:39

Лог создания рипа

Exact Audio Copy V1.3 from 2. September 2016
EAC extraction logfile from 18. May 2019, 18:24
Unzucht / Todsunde 8
Used drive : HP DVD Writer 1170d Adapter: 1 ID: 1
Read mode : SecureUtilize accurate stream : YesDefeat audio cache : YesMake use of C2 pointers : No
Read offset correction : 6Overread into Lead-In and Lead-Out : NoFill up missing offset samples with silence : YesDelete leading and trailing silent blocks : NoNull samples used in CRC calculations : YesUsed interface : Native Win32 interface for Win NT & 2000
Used output format : User Defined EncoderSelected bitrate : 1024 kBit/sQuality : HighAdd ID3 tag : NoCommand line compressor : C:\Program Files (x86)\Exact Audio Copy\Flac\flac.exeAdditional command line options : -V -8 -T "Date=%year%" -T "Genre=%genre%" %source%
TOC of the extracted CD
Track | Start | Length | Start sector | End sector --------------------------------------------------------- 1 | 0:00.00 | 4:32.21 | 0 | 20420 2 | 4:32.21 | 4:00.06 | 20421 | 38426 3 | 8:32.27 | 3:49.21 | 38427 | 55622 4 | 12:21.48 | 4:48.57 | 55623 | 77279 5 | 17:10.30 | 3:50.63 | 77280 | 94592 6 | 21:01.18 | 4:42.38 | 94593 | 115780 7 | 25:43.56 | 4:13.47 | 115781 | 134802 8 | 29:57.28 | 3:59.63 | 134803 | 152790 9 | 33:57.16 | 5:50.59 | 152791 | 179099 10 | 39:48.00 | 4:20.44 | 179100 | 198643 11 | 44:08.44 | 2:46.71 | 198644 | 211164 12 | 46:55.40 | 4:01.63 | 211165 | 229302 13 | 50:57.28 | 5:38.35 | 229303 | 254687 14 | 56:35.63 | 3:29.66 | 254688 | 270428 15 | 60:05.54 | 5:03.63 | 270429 | 293216 16 | 65:09.42 | 4:05.72 | 293217 | 311663 17 | 69:15.39 | 4:39.09 | 311664 | 332597
Range status and errors
Selected range
Filename C:\EAC\ungern666\Unzucht - Todsunde 8.wav
Peak level 100.0 % Extraction speed 6.6 X Range quality 100.0 % Test CRC EDA41D65 Copy CRC EDA41D65 Copy OK
No errors occurred
AccurateRip summary
Track 1 accurately ripped (confidence 8) [ABE80132] (AR v2)Track 2 accurately ripped (confidence 8) [E0ED3D38] (AR v2)Track 3 accurately ripped (confidence 8) [C94C2470] (AR v2)Track 4 accurately ripped (confidence 8) [64E26D75] (AR v2)Track 5 accurately ripped (confidence 8) [E477E863] (AR v2)Track 6 accurately ripped (confidence 8) [F1B455A5] (AR v2)Track 7 accurately ripped (confidence 8) [E1A27184] (AR v2)Track 8 accurately ripped (confidence 8) [6A5F4BDD] (AR v2)Track 9 accurately ripped (confidence 8) [96DB083E] (AR v2)Track 10 accurately ripped (confidence 8) [AC1CB811] (AR v2)Track 11 accurately ripped (confidence 8) [7DFF9896] (AR v2)Track 12 accurately ripped (confidence 8) [422DD9A3] (AR v2)Track 13 accurately ripped (confidence 7) [2DEEFE51] (AR v2)Track 14 accurately ripped (confidence 8) [335D8279] (AR v2)Track 15 accurately ripped (confidence 8) [BF725630] (AR v2)Track 16 accurately ripped (confidence 8) [0B23C3CD] (AR v2)Track 17 accurately ripped (confidence 8) [3F446717] (AR v2)
All tracks accurately ripped
End of status report
---- CUETools DB Plugin V2.1.6
[CTDB TOCID: sEPTgcrOL1IAYKAp_F7w5MfqQ9U-] foundSubmit result: sEPTgcrOL1IAYKAp_F7w5MfqQ9U- has been confirmedTrack | CTDB Status 1 | (18/18) Accurately ripped 2 | (18/18) Accurately ripped 3 | (18/18) Accurately ripped 4 | (18/18) Accurately ripped 5 | (18/18) Accurately ripped 6 | (18/18) Accurately ripped 7 | (18/18) Accurately ripped 8 | (18/18) Accurately ripped 9 | (18/18) Accurately ripped 10 | (18/18) Accurately ripped 11 | (18/18) Accurately ripped 12 | (18/18) Accurately ripped 13 | (18/18) Accurately ripped 14 | (18/18) Accurately ripped 15 | (18/18) Accurately ripped 16 | (18/18) Accurately ripped 17 | (18/18) Accurately ripped
==== Log checksum 0539274D482F690B4CE5A5194BF79B1D02ADE02D3C2810326859F53D25612AA1 ====

2013: Rosenkreuzer (Limited Edition)

Издатель (лейбл): NoCut
Номер по каталогу: SPV 264040
Продолжительность: 00:55:37
01. Rosenkreuzer 03:10
02. Kind von Traurigkeit 04:28
03. Triebwerk 03:44
04. Nur die Ewigkeit 05:23
05. Feuersturm 03:28
06. Zwischen den Welten 03:42
07. Das dunkle Tier 03:57
08. Der Versuch zu leben 05:05
09. Angst 02:58
10. Der Untergang 04:43
11. Entre dos Tierras 05:00
12. Nymphonie 05:17
13. Mit dir oder ohne dich 04:41

Лог создания рипа

Exact Audio Copy V1.3 from 2. September 2016
EAC extraction logfile from 18. May 2019, 18:46
Unzucht / Rosenkreuzer (Limited Edition)
Used drive : HP DVD Writer 1170d Adapter: 1 ID: 1
Read mode : SecureUtilize accurate stream : YesDefeat audio cache : YesMake use of C2 pointers : No
Read offset correction : 6Overread into Lead-In and Lead-Out : NoFill up missing offset samples with silence : YesDelete leading and trailing silent blocks : NoNull samples used in CRC calculations : YesUsed interface : Native Win32 interface for Win NT & 2000
Used output format : User Defined EncoderSelected bitrate : 1024 kBit/sQuality : HighAdd ID3 tag : NoCommand line compressor : C:\Program Files (x86)\Exact Audio Copy\Flac\flac.exeAdditional command line options : -V -8 -T "Date=%year%" -T "Genre=%genre%" %source%
TOC of the extracted CD
Track | Start | Length | Start sector | End sector --------------------------------------------------------- 1 | 0:00.00 | 3:10.11 | 0 | 14260 2 | 3:10.11 | 4:28.35 | 14261 | 34395 3 | 7:38.46 | 3:44.30 | 34396 | 51225 4 | 11:23.01 | 5:23.04 | 51226 | 75454 5 | 16:46.05 | 3:28.15 | 75455 | 91069 6 | 20:14.20 | 3:41.52 | 91070 | 107696 7 | 23:55.72 | 3:57.33 | 107697 | 125504 8 | 27:53.30 | 5:04.70 | 125505 | 148374 9 | 32:58.25 | 2:58.09 | 148375 | 161733 10 | 35:56.34 | 4:42.61 | 161734 | 182944 11 | 40:39.20 | 5:00.17 | 182945 | 205461 12 | 45:39.37 | 5:17.03 | 205462 | 229239 13 | 50:56.40 | 4:40.38 | 229240 | 250277
Range status and errors
Selected range
Filename C:\EAC\ungern666\Unzucht - Rosenkreuzer (Limited Edition).wav
Peak level 100.0 % Extraction speed 5.5 X Range quality 99.9 % Test CRC B9CDBFDB Copy CRC B9CDBFDB Copy OK
No errors occurred
AccurateRip summary
Track 1 accurately ripped (confidence 9) [43E781CA] (AR v2)Track 2 accurately ripped (confidence 9) [65DA30CD] (AR v2)Track 3 accurately ripped (confidence 9) [D9769264] (AR v2)Track 4 accurately ripped (confidence 9) [C01414BA] (AR v2)Track 5 accurately ripped (confidence 9) [C7481352] (AR v2)Track 6 accurately ripped (confidence 9) [51874B0D] (AR v2)Track 7 accurately ripped (confidence 9) [720107D2] (AR v2)Track 8 accurately ripped (confidence 9) [4B27A78F] (AR v2)Track 9 accurately ripped (confidence 9) [59AEC357] (AR v2)Track 10 accurately ripped (confidence 9) [FDE5B5EA] (AR v2)Track 11 accurately ripped (confidence 9) [8D481385] (AR v2)Track 12 accurately ripped (confidence 9) [30868EC0] (AR v2)Track 13 accurately ripped (confidence 9) [0C92A0E3] (AR v2)
All tracks accurately ripped
End of status report
---- CUETools DB Plugin V2.1.6
[CTDB TOCID: WABmamcb_JbHrfrJLmmj2gJyezs-] foundSubmit result: WABmamcb_JbHrfrJLmmj2gJyezs- has been confirmedTrack | CTDB Status 1 | (19/19) Accurately ripped 2 | (19/19) Accurately ripped 3 | (19/19) Accurately ripped 4 | (19/19) Accurately ripped 5 | (19/19) Accurately ripped 6 | (19/19) Accurately ripped 7 | (19/19) Accurately ripped 8 | (19/19) Accurately ripped 9 | (19/19) Accurately ripped 10 | (19/19) Accurately ripped 11 | (19/19) Accurately ripped 12 | (19/19) Accurately ripped 13 | (19/19) Accurately ripped
==== Log checksum 875601F2A96D6D54F41D35E710AF19FF7711C664AAA605C564A4951F38C318F0 ====

2014: Venus Luzifer

Издатель (лейбл): NoCut
Номер по каталогу: SPV 267090 CD
Продолжительность: 00:52:36
01. Wir sind das Feuer 05:49
02. Seelenblind 04:18
03. Das Denkmal fällt 03:55
04. Ikaria 05:03
05. Nimm mich mit 05:09
06. Unendlich 05:57
07. Neugeboren 04:31
08. Schweigen 05:21
09. Leidbild 04:10
10. Krieg 02:38
11. Mein Grab 05:47

Лог создания рипа

Exact Audio Copy V1.3 from 2. September 2016
EAC extraction logfile from 18. May 2019, 19:42
Unzucht / Venus Luzifer
Used drive : HP DVD Writer 1170d Adapter: 1 ID: 1
Read mode : SecureUtilize accurate stream : YesDefeat audio cache : YesMake use of C2 pointers : No
Read offset correction : 6Overread into Lead-In and Lead-Out : NoFill up missing offset samples with silence : YesDelete leading and trailing silent blocks : NoNull samples used in CRC calculations : YesUsed interface : Native Win32 interface for Win NT & 2000
Used output format : User Defined EncoderSelected bitrate : 1024 kBit/sQuality : HighAdd ID3 tag : NoCommand line compressor : C:\Program Files (x86)\Exact Audio Copy\Flac\flac.exeAdditional command line options : -V -8 -T "Date=%year%" -T "Genre=%genre%" %source%
TOC of the extracted CD
Track | Start | Length | Start sector | End sector --------------------------------------------------------- 1 | 0:00.00 | 5:49.08 | 0 | 26182 2 | 5:49.08 | 4:17.52 | 26183 | 45509 3 | 10:06.60 | 3:55.28 | 45510 | 63162 4 | 14:02.13 | 5:02.41 | 63163 | 85853 5 | 19:04.54 | 5:08.67 | 85854 | 109020 6 | 24:13.46 | 5:56.56 | 109021 | 135776 7 | 30:10.27 | 4:30.52 | 135777 | 156078 8 | 34:41.04 | 5:20.44 | 156079 | 180122 9 | 40:01.48 | 4:09.43 | 180123 | 198840 10 | 44:11.16 | 2:38.27 | 198841 | 210717 11 | 46:49.43 | 5:47.07 | 210718 | 236749
Range status and errors
Selected range
Filename C:\EAC\ungern666\Unzucht - Venus Luzifer.wav
Peak level 96.6 % Extraction speed 7.2 X Range quality 99.9 % Test CRC 72B47D24 Copy CRC 72B47D24 Copy OK
No errors occurred
AccurateRip summary
Track 1 accurately ripped (confidence 6) [749A32CD] (AR v2)Track 2 accurately ripped (confidence 6) [6B50E1F1] (AR v2)Track 3 accurately ripped (confidence 6) [9011B275] (AR v2)Track 4 accurately ripped (confidence 6) [F96DEBE7] (AR v2)Track 5 accurately ripped (confidence 6) [14A5FB95] (AR v2)Track 6 accurately ripped (confidence 6) [2B0F9C1F] (AR v2)Track 7 accurately ripped (confidence 6) [5B9BEA51] (AR v2)Track 8 accurately ripped (confidence 6) [C6CBF323] (AR v2)Track 9 accurately ripped (confidence 6) [87FE53B1] (AR v2)Track 10 accurately ripped (confidence 6) [1A5EE366] (AR v2)Track 11 accurately ripped (confidence 6) [DF4A4BC7] (AR v2)
All tracks accurately ripped
End of status report
---- CUETools DB Plugin V2.1.6
[CTDB TOCID: cDyeon.4uzi4qLsinxwMxyfFuj8-] foundSubmit result: cDyeon.4uzi4qLsinxwMxyfFuj8- has been confirmedTrack | CTDB Status 1 | (25/25) Accurately ripped 2 | (25/25) Accurately ripped 3 | (25/25) Accurately ripped 4 | (25/25) Accurately ripped 5 | (25/25) Accurately ripped 6 | (25/25) Accurately ripped 7 | (25/25) Accurately ripped 8 | (25/25) Accurately ripped 9 | (25/25) Accurately ripped 10 | (25/25) Accurately ripped 11 | (25/25) Accurately ripped
==== Log checksum B5F9689D45B656AD29ADC70B684B1C3AB86FE223C1B5359A298EDAC27E715EE5 ====

2016: Neuntöter (Limited Edition)

Издатель (лейбл): Out Of Line
Номер по каталогу: OUT 832 | 833 | 834

Neuntöter (Deluxe Edition)

Продолжительность: 00:45:42/00:27:45

CD 1

01. Der dunkle See 04:16
02. Widerstand 04:25
03. Lava 04:25
04. Kettenhund 03:48
05. Hinter Glas 05:34
06. Ein Wort fliegt wie ein Stein 04:02
07. Judas 03:58
08. Neuntöter 04:23
09. Schlaf 04:05
10. Piotrek 04:21
11. Splitter 02:21

Лог создания рипа

Exact Audio Copy V1.3 from 2. September 2016
EAC extraction logfile from 18. May 2019, 20:06
Unzucht / Neuntoter CD 1
Used drive : HP DVD Writer 1170d Adapter: 1 ID: 1
Read mode : SecureUtilize accurate stream : YesDefeat audio cache : YesMake use of C2 pointers : No
Read offset correction : 6Overread into Lead-In and Lead-Out : NoFill up missing offset samples with silence : YesDelete leading and trailing silent blocks : NoNull samples used in CRC calculations : YesUsed interface : Native Win32 interface for Win NT & 2000
Used output format : User Defined EncoderSelected bitrate : 1024 kBit/sQuality : HighAdd ID3 tag : NoCommand line compressor : C:\Program Files (x86)\Exact Audio Copy\Flac\flac.exeAdditional command line options : -V -8 -T "Date=%year%" -T "Genre=%genre%" %source%
TOC of the extracted CD
Track | Start | Length | Start sector | End sector --------------------------------------------------------- 1 | 0:00.00 | 4:16.03 | 0 | 19202 2 | 4:16.03 | 4:25.20 | 19203 | 39097 3 | 8:41.23 | 4:24.72 | 39098 | 58969 4 | 13:06.20 | 3:48.02 | 58970 | 76071 5 | 16:54.22 | 5:34.11 | 76072 | 101132 6 | 22:28.33 | 4:01.53 | 101133 | 119260 7 | 26:30.11 | 3:57.50 | 119261 | 137085 8 | 30:27.61 | 4:22.44 | 137086 | 156779 9 | 34:50.30 | 4:04.66 | 156780 | 175145 10 | 38:55.21 | 4:20.52 | 175146 | 194697 11 | 43:15.73 | 2:26.73 | 194698 | 205720
Range status and errors
Selected range
Filename C:\EAC\ungern666\Unzucht - Neuntoter CD 1.wav
Peak level 96.6 % Extraction speed 5.4 X Range quality 99.9 % Test CRC B58A51E7 Copy CRC B58A51E7 Copy OK
No errors occurred
AccurateRip summary
Track 1 accurately ripped (confidence 7) [0D0EE59E] (AR v2)Track 2 accurately ripped (confidence 7) [48A1A54C] (AR v2)Track 3 accurately ripped (confidence 7) [34D6A908] (AR v2)Track 4 accurately ripped (confidence 7) [4E1FC83B] (AR v2)Track 5 accurately ripped (confidence 7) [87F79D4C] (AR v2)Track 6 accurately ripped (confidence 7) [2E8CBB0E] (AR v2)Track 7 accurately ripped (confidence 7) [CE0C19A6] (AR v2)Track 8 accurately ripped (confidence 7) [18FEE4A8] (AR v2)Track 9 accurately ripped (confidence 7) [9F94ED8A] (AR v2)Track 10 accurately ripped (confidence 7) [9817100F] (AR v2)Track 11 accurately ripped (confidence 7) [8E6B48D5] (AR v2)
All tracks accurately ripped
End of status report
---- CUETools DB Plugin V2.1.6
[CTDB TOCID: EOYqzq9lQwNyQAEfJ9Y2hlZmWKU-] foundSubmit result: EOYqzq9lQwNyQAEfJ9Y2hlZmWKU- has been confirmedTrack | CTDB Status 1 | (22/22) Accurately ripped 2 | (22/22) Accurately ripped 3 | (22/22) Accurately ripped 4 | (22/22) Accurately ripped 5 | (22/22) Accurately ripped 6 | (22/22) Accurately ripped 7 | (22/22) Accurately ripped 8 | (22/22) Accurately ripped 9 | (22/22) Accurately ripped 10 | (22/22) Accurately ripped 11 | (22/22) Accurately ripped
==== Log checksum 7949DE1ED62A00BF5B1486D9B005E7E2EB7038482174E92D6590AFD3CBDA7C09 ====

CD 2 Bonus CD

01. Parasomnia 05:00
02. Tränenmeer 03:43
03. Das Lacheln der Gewinner 05:43
04. Widerstand feat. Dave Grunewald (Annisokay) 04:25
05. Ein Wort fliegt wie ein Stein feat. Chris Harms (Lord of the Lost) 04:04
06. Ein Tag wie jeder andere (Robert Andrew Bowman Remix) 04:49

Лог создания рипа

Exact Audio Copy V1.3 from 2. September 2016
EAC extraction logfile from 18. May 2019, 20:20
Unzucht / Neuntoter CD 2
Used drive : HP DVD Writer 1170d Adapter: 1 ID: 1
Read mode : SecureUtilize accurate stream : YesDefeat audio cache : YesMake use of C2 pointers : No
Read offset correction : 6Overread into Lead-In and Lead-Out : NoFill up missing offset samples with silence : YesDelete leading and trailing silent blocks : NoNull samples used in CRC calculations : YesUsed interface : Native Win32 interface for Win NT & 2000
Used output format : User Defined EncoderSelected bitrate : 1024 kBit/sQuality : HighAdd ID3 tag : NoCommand line compressor : C:\Program Files (x86)\Exact Audio Copy\Flac\flac.exeAdditional command line options : -V -8 -T "Date=%year%" -T "Genre=%genre%" %source%
TOC of the extracted CD
Track | Start | Length | Start sector | End sector --------------------------------------------------------- 1 | 0:00.00 | 5:00.18 | 0 | 22517 2 | 5:00.18 | 3:43.31 | 22518 | 39273 3 | 8:43.49 | 5:43.18 | 39274 | 65016 4 | 14:26.67 | 4:25.21 | 65017 | 84912 5 | 18:52.13 | 4:03.49 | 84913 | 103186 6 | 22:55.62 | 4:49.37 | 103187 | 124898
Range status and errors
Selected range
Filename C:\EAC\ungern666\Unzucht - Neuntoter CD 2.wav
Peak level 96.6 % Extraction speed 4.8 X Range quality 99.9 % Test CRC 1D875348 Copy CRC 1D875348 Copy OK
No errors occurred
AccurateRip summary
Track 1 accurately ripped (confidence 7) [A6F20C32] (AR v2)Track 2 accurately ripped (confidence 7) [4B45FADF] (AR v2)Track 3 accurately ripped (confidence 7) [318034ED] (AR v2)Track 4 accurately ripped (confidence 7) [F2F78368] (AR v2)Track 5 accurately ripped (confidence 7) [98BED0C5] (AR v2)Track 6 accurately ripped (confidence 7) [0C9911DB] (AR v2)
All tracks accurately ripped
End of status report
---- CUETools DB Plugin V2.1.6
[CTDB TOCID: yo_OFt8p3Lwlw.z5BismgBYI4GU-] foundSubmit result: yo_OFt8p3Lwlw.z5BismgBYI4GU- has been confirmedTrack | CTDB Status 1 | (14/14) Accurately ripped 2 | (14/14) Accurately ripped 3 | (14/14) Accurately ripped 4 | (14/14) Accurately ripped 5 | (14/14) Accurately ripped 6 | (14/14) Accurately ripped
==== Log checksum F41A4F6F6DF3199BEB52EC3DE651E7845F1880C532F8F0656E0DC7AFD808072F ====

Live from the Street

Продолжительность: 00:50:44
01. Seelenblind 04:42
02. Meine Liebe 04:02
03. Kind von Traurigkeit 04:35
04. Der letzte Tanz 05:55
05. Unzucht 05:44
06. Während wir uns verlieren 04:03
07. Nur die Ewigkeit 05:30
08. Engel der Vernichtung 05:44
09. Schweigen 05:30
10. Deine Zeit läuft ab 04:59

Лог создания рипа

Exact Audio Copy V1.3 from 2. September 2016
EAC extraction logfile from 18. May 2019, 20:40
Unzucht / Live from the Street
Used drive : HP DVD Writer 1170d Adapter: 1 ID: 1
Read mode : SecureUtilize accurate stream : YesDefeat audio cache : YesMake use of C2 pointers : No
Read offset correction : 6Overread into Lead-In and Lead-Out : NoFill up missing offset samples with silence : YesDelete leading and trailing silent blocks : NoNull samples used in CRC calculations : YesUsed interface : Native Win32 interface for Win NT & 2000
Used output format : User Defined EncoderSelected bitrate : 1024 kBit/sQuality : HighAdd ID3 tag : NoCommand line compressor : C:\Program Files (x86)\Exact Audio Copy\Flac\flac.exeAdditional command line options : -V -8 -T "Date=%year%" -T "Genre=%genre%" %source%
TOC of the extracted CD
Track | Start | Length | Start sector | End sector --------------------------------------------------------- 1 | 0:00.00 | 4:42.14 | 0 | 21163 2 | 4:42.14 | 4:02.27 | 21164 | 39340 3 | 8:44.41 | 4:34.57 | 39341 | 59947 4 | 13:19.23 | 5:54.62 | 59948 | 86559 5 | 19:14.10 | 5:43.47 | 86560 | 112331 6 | 24:57.57 | 4:03.09 | 112332 | 130565 7 | 29:00.66 | 5:30.04 | 130566 | 155319 8 | 34:30.70 | 5:44.05 | 155320 | 181124 9 | 40:15.00 | 5:30.33 | 181125 | 205907 10 | 45:45.33 | 4:59.22 | 205908 | 228354
Range status and errors
Selected range
Filename C:\EAC\ungern666\Unzucht - Live from the Street.wav
Peak level 100.0 % Extraction speed 5.6 X Range quality 99.9 % Test CRC 6FFCD484 Copy CRC 6FFCD484 Copy OK
No errors occurred
AccurateRip summary
Track 1 accurately ripped (confidence 2) [E439B469] (AR v2)Track 2 accurately ripped (confidence 2) [780C236F] (AR v2)Track 3 accurately ripped (confidence 2) [3035C043] (AR v2)Track 4 accurately ripped (confidence 2) [97CD33F2] (AR v2)Track 5 accurately ripped (confidence 2) [5C8214DE] (AR v2)Track 6 accurately ripped (confidence 2) [759DA835] (AR v2)Track 7 accurately ripped (confidence 2) [CDD25710] (AR v2)Track 8 accurately ripped (confidence 2) [029027B9] (AR v2)Track 9 accurately ripped (confidence 2) [F5D6C098] (AR v2)Track 10 accurately ripped (confidence 2) [28F72D46] (AR v2)
All tracks accurately ripped
End of status report
---- CUETools DB Plugin V2.1.6
[CTDB TOCID: JAslM7VlGwpmt9P0OrblwTEK0ic-] foundSubmit result: JAslM7VlGwpmt9P0OrblwTEK0ic- has been confirmedTrack | CTDB Status 1 | (2/2) Accurately ripped 2 | (2/2) Accurately ripped 3 | (2/2) Accurately ripped 4 | (2/2) Accurately ripped 5 | (2/2) Accurately ripped 6 | (2/2) Accurately ripped 7 | (2/2) Accurately ripped 8 | (2/2) Accurately ripped 9 | (2/2) Accurately ripped 10 | (2/2) Accurately ripped
==== Log checksum E012810F8DF7F88BF307EB6A52E0B4ED3E3E17A0FC1B12D9F670B27E765F93F5 ====

2018: Akephalos (Limited Edition)

Издатель (лейбл): Out Of Line
Номер по каталогу: OUT 928 / OUT 929

Akephalos

Продолжительность: 00:54:30
01. Projektil 06:30
02. Nela 05:44
03. Der Tod in mir 04:50
04. Die Verbotene Frucht 06:03
05. Akephalos 03:07
06. Du fehlst 04:15
07. Der schmale Grat 05:35
08. Nur die halbe Wahrheit 03:54
09. Nachts im Meer 03:17
10. Fleisch und Ruinen 03:36
11. Das sichere Ufer 04:30
Bonus Track
12. Ein Wort fliegt wie ein Stein (feat. Saltatio Mortis) 03:08

Лог создания рипа

Exact Audio Copy V1.3 from 2. September 2016
EAC extraction logfile from 18. May 2019, 15:52
Unzucht / Akephalos
Used drive : HP DVD Writer 1170d Adapter: 1 ID: 1
Read mode : SecureUtilize accurate stream : YesDefeat audio cache : YesMake use of C2 pointers : No
Read offset correction : 6Overread into Lead-In and Lead-Out : NoFill up missing offset samples with silence : YesDelete leading and trailing silent blocks : NoNull samples used in CRC calculations : YesUsed interface : Native Win32 interface for Win NT & 2000
Used output format : User Defined EncoderSelected bitrate : 1024 kBit/sQuality : HighAdd ID3 tag : NoCommand line compressor : C:\Program Files (x86)\Exact Audio Copy\Flac\flac.exeAdditional command line options : -V -8 -T "Date=%year%" -T "Genre=%genre%" %source%
TOC of the extracted CD
Track | Start | Length | Start sector | End sector --------------------------------------------------------- 1 | 0:00.00 | 6:29.38 | 0 | 29212 2 | 6:29.38 | 5:44.20 | 29213 | 55032 3 | 12:13.58 | 4:50.29 | 55033 | 76811 4 | 17:04.12 | 6:02.71 | 76812 | 104032 5 | 23:07.08 | 3:07.13 | 104033 | 118070 6 | 26:14.21 | 4:15.34 | 118071 | 137229 7 | 30:29.55 | 5:35.11 | 137230 | 162365 8 | 36:04.66 | 3:54.18 | 162366 | 179933 9 | 39:59.09 | 3:16.60 | 179934 | 194693 10 | 43:15.69 | 3:36.18 | 194694 | 210911 11 | 46:52.12 | 4:30.30 | 210912 | 231191 12 | 51:22.42 | 3:08.27 | 231192 | 245318
Range status and errors
Selected range
Filename C:\EAC\ungern666\Unzucht - Akephalos.wav
Peak level 94.4 % Extraction speed 7.0 X Range quality 100.0 % Test CRC 416A55CF Copy CRC 416A55CF Copy OK
No errors occurred
AccurateRip summary
Track 1 accurately ripped (confidence 4) [FFBB1614] (AR v2)Track 2 accurately ripped (confidence 4) [A49CC8DF] (AR v2)Track 3 accurately ripped (confidence 4) [560E3E9B] (AR v2)Track 4 accurately ripped (confidence 4) [73980D60] (AR v2)Track 5 accurately ripped (confidence 4) [DA44B853] (AR v2)Track 6 accurately ripped (confidence 4) [E779931D] (AR v2)Track 7 accurately ripped (confidence 4) [591031E1] (AR v2)Track 8 accurately ripped (confidence 4) [5758FAEE] (AR v2)Track 9 accurately ripped (confidence 4) [29B43B79] (AR v2)Track 10 accurately ripped (confidence 4) [71F05455] (AR v2)Track 11 accurately ripped (confidence 4) [A5850AAA] (AR v2)Track 12 accurately ripped (confidence 3) [4C512389] (AR v2)
All tracks accurately ripped
End of status report
---- CUETools DB Plugin V2.1.6
[CTDB TOCID: 5yykqXrOpJws4DPoI8yIoSI37Sw-] foundSubmit result: 5yykqXrOpJws4DPoI8yIoSI37Sw- has been confirmedTrack | CTDB Status 1 | (19/19) Accurately ripped 2 | (19/19) Accurately ripped 3 | (19/19) Accurately ripped 4 | (19/19) Accurately ripped 5 | (19/19) Accurately ripped 6 | (19/19) Accurately ripped 7 | (19/19) Accurately ripped 8 | (19/19) Accurately ripped 9 | (19/19) Accurately ripped 10 | (19/19) Accurately ripped 11 | (19/19) Accurately ripped 12 | (19/19) Accurately ripped
==== Log checksum 79F3CBF2DCC18B7DF3571B32A0F7A1A6E79E787A1BE41977860C0E35656E9E9A ====

Piano

Продолжительность: 00:46:48
01. Wir sind das Feuer 05:46
02. Nimm mich mit 05:03
03. Widerstand 04:45
04. Ein Tag wie jeder Andere 04:42
05. Meine Liebe 03:42
06. Seelenblind 03:52
07. Hinter Glas 05:02
08. Lava 04:24
09. Nur die Ewigkeit 05:22
10. Du fehlst 04:11

Лог создания рипа

Exact Audio Copy V1.3 from 2. September 2016
EAC extraction logfile from 18. May 2019, 16:15
Unzucht / Piano
Used drive : HP DVD Writer 1170d Adapter: 1 ID: 1
Read mode : SecureUtilize accurate stream : YesDefeat audio cache : YesMake use of C2 pointers : No
Read offset correction : 6Overread into Lead-In and Lead-Out : NoFill up missing offset samples with silence : YesDelete leading and trailing silent blocks : NoNull samples used in CRC calculations : YesUsed interface : Native Win32 interface for Win NT & 2000
Used output format : User Defined EncoderSelected bitrate : 1024 kBit/sQuality : HighAdd ID3 tag : NoCommand line compressor : C:\Program Files (x86)\Exact Audio Copy\Flac\flac.exeAdditional command line options : -V -8 -T "Date=%year%" -T "Genre=%genre%" %source%
TOC of the extracted CD
Track | Start | Length | Start sector | End sector --------------------------------------------------------- 1 | 0:00.00 | 5:45.45 | 0 | 25919 2 | 5:45.45 | 5:03.13 | 25920 | 48657 3 | 10:48.58 | 4:45.24 | 48658 | 70056 4 | 15:34.07 | 4:41.46 | 70057 | 91177 5 | 20:15.53 | 3:41.62 | 91178 | 107814 6 | 23:57.40 | 3:51.44 | 107815 | 125183 7 | 27:49.09 | 5:02.12 | 125184 | 147845 8 | 32:51.21 | 4:24.20 | 147846 | 167665 9 | 37:15.41 | 5:22.05 | 167666 | 191820 10 | 42:37.46 | 4:10.38 | 191821 | 210608
Range status and errors
Selected range
Filename C:\EAC\ungern666\Unzucht - Piano.wav
Peak level 96.5 % Extraction speed 4.0 X Range quality 99.9 % Test CRC 063C3E48 Copy CRC 063C3E48 Copy OK
No errors occurred
AccurateRip summary
Track 1 not present in databaseTrack 2 not present in databaseTrack 3 not present in databaseTrack 4 not present in databaseTrack 5 not present in databaseTrack 6 not present in databaseTrack 7 not present in databaseTrack 8 not present in databaseTrack 9 not present in databaseTrack 10 not present in database
None of the tracks are present in the AccurateRip database
End of status report
---- CUETools DB Plugin V2.1.6
[CTDB TOCID: E60u0DP5awVix8tOvmAVa6XHCB4-] foundSubmit result: E60u0DP5awVix8tOvmAVa6XHCB4- has been confirmedTrack | CTDB Status 1 | (5/5) Accurately ripped 2 | (5/5) Accurately ripped 3 | (5/5) Accurately ripped 4 | (5/5) Accurately ripped 5 | (5/5) Accurately ripped 6 | (5/5) Accurately ripped 7 | (5/5) Accurately ripped 8 | (5/5) Accurately ripped 9 | (5/5) Accurately ripped 10 | (5/5) Accurately ripped
==== Log checksum 5E89E9D368190579F6675D1E6CECB4AE6F58EB1F6C01D6CA466B781372995819 ====
EPs and Live

2012: Deine Zeit läuft ab

Издатель (лейбл): NoCut
Номер по каталогу: NOCUT1102
Продолжительность: 00:20:45
01. Deine Zeit läuft ab 04:21
02. Fleisch 04:42
03. Laio 03:50
04. Unzucht 04:43
05. Deine Zeit läuft ab (St. Pauli-Sinfoniker Remix by Lord of the Lost) 04:17
06. Fleisch (Körper-Mix by Funker Vogt) 04:54

Лог создания рипа

Exact Audio Copy V1.3 from 2. September 2016
EAC extraction logfile from 18. May 2019, 17:59
Unzucht / Deine Zeit lauft ab
Used drive : HP DVD Writer 1170d Adapter: 1 ID: 1
Read mode : SecureUtilize accurate stream : YesDefeat audio cache : YesMake use of C2 pointers : No
Read offset correction : 6Overread into Lead-In and Lead-Out : NoFill up missing offset samples with silence : YesDelete leading and trailing silent blocks : NoNull samples used in CRC calculations : YesUsed interface : Native Win32 interface for Win NT & 2000
Used output format : User Defined EncoderSelected bitrate : 1024 kBit/sQuality : HighAdd ID3 tag : NoCommand line compressor : C:\Program Files (x86)\Exact Audio Copy\Flac\flac.exeAdditional command line options : -V -8 -T "Date=%year%" -T "Genre=%genre%" %source%
TOC of the extracted CD
Track | Start | Length | Start sector | End sector --------------------------------------------------------- 1 | 0:00.00 | 4:20.70 | 0 | 19569 2 | 4:20.70 | 4:42.15 | 19570 | 40734 3 | 9:03.10 | 3:50.17 | 40735 | 58001 4 | 12:53.27 | 4:43.21 | 58002 | 79247 5 | 17:36.48 | 4:17.32 | 79248 | 98554 6 | 21:54.05 | 4:53.53 | 98555 | 120582
Range status and errors
Selected range
Filename C:\EAC\ungern666\Unzucht - Deine Zeit lauft ab.wav
Peak level 96.5 % Extraction speed 4.9 X Range quality 100.0 % Test CRC 89A24468 Copy CRC 89A24468 Copy OK
No errors occurred
AccurateRip summary
Track 1 accurately ripped (confidence 3) [D01BE3F9] (AR v2)Track 2 accurately ripped (confidence 3) [BD78E8E8] (AR v2)Track 3 accurately ripped (confidence 3) [726D1974] (AR v2)Track 4 accurately ripped (confidence 3) [DF80EE56] (AR v2)Track 5 accurately ripped (confidence 3) [18CE4074] (AR v2)Track 6 accurately ripped (confidence 3) [CB3B1318] (AR v2)
All tracks accurately ripped
End of status report
---- CUETools DB Plugin V2.1.6
[CTDB TOCID: dkNbUbWir_SoJqm6yq.dm5QnLwU-] foundSubmit result: already submittedTrack | CTDB Status 1 | (3/3) Accurately ripped 2 | (3/3) Accurately ripped 3 | (3/3) Accurately ripped 4 | (3/3) Accurately ripped 5 | (3/3) Accurately ripped 6 | (3/3) Accurately ripped
==== Log checksum 194F09C7823A3A46A7F76E9827C475D298E0299A95E4F2640CE16317C5EAB373 ====

2015: Schweigen / Seelenblind

Издатель (лейбл): NoCut
Номер по каталогу: SPV 264103 CDS
Продолжительность: 00:34:42
01. Schweigen 05:21
02. Seelenblind 04:18
03. Die Dialektik des Schreckens 04:21
04. Ein letzter Gedanke 04:46
05. Seelenblind (Death Valley High Remix) 04:13
06. Neugeboren (Erdling Remix) 03:29
07. Schweigen (Bells Into Machines Remix) 04:49
08. Das Denkmal fällt (Roboz Remix) 03:26

Лог создания рипа

Exact Audio Copy V1.3 from 2. September 2016
EAC extraction logfile from 18. May 2019, 17:16
Unzucht / Schweigen Seelenblind
Used drive : HP DVD Writer 1170d Adapter: 1 ID: 1
Read mode : SecureUtilize accurate stream : YesDefeat audio cache : YesMake use of C2 pointers : No
Read offset correction : 6Overread into Lead-In and Lead-Out : NoFill up missing offset samples with silence : YesDelete leading and trailing silent blocks : NoNull samples used in CRC calculations : YesUsed interface : Native Win32 interface for Win NT & 2000
Used output format : User Defined EncoderSelected bitrate : 1024 kBit/sQuality : HighAdd ID3 tag : NoCommand line compressor : C:\Program Files (x86)\Exact Audio Copy\Flac\flac.exeAdditional command line options : -V -8 -T "Date=%year%" -T "Genre=%genre%" %source%
TOC of the extracted CD
Track | Start | Length | Start sector | End sector --------------------------------------------------------- 1 | 0:00.00 | 5:20.44 | 0 | 24043 2 | 5:20.44 | 4:17.52 | 24044 | 43370 3 | 9:38.21 | 4:20.71 | 43371 | 62941 4 | 13:59.17 | 4:46.10 | 62942 | 84401 5 | 18:45.27 | 4:12.70 | 84402 | 103371 6 | 22:58.22 | 3:29.07 | 103372 | 119053 7 | 26:27.29 | 4:48.55 | 119054 | 140708 8 | 31:16.09 | 3:26.06 | 140709 | 156164
Range status and errors
Selected range
Filename C:\EAC\ungern666\Unzucht - Schweigen Seelenblind.wav
Peak level 96.6 % Extraction speed 5.3 X Range quality 100.0 % Test CRC 55D9D8CE Copy CRC 55D9D8CE Copy OK
No errors occurred
AccurateRip summary
Track 1 accurately ripped (confidence 2) [C6CBF323] (AR v2)Track 2 accurately ripped (confidence 2) [6B50E1F1] (AR v2)Track 3 accurately ripped (confidence 2) [32A9A94E] (AR v2)Track 4 accurately ripped (confidence 2) [CD2EE676] (AR v2)Track 5 accurately ripped (confidence 2) [34BA2DA7] (AR v2)Track 6 accurately ripped (confidence 2) [80F69ED1] (AR v2)Track 7 accurately ripped (confidence 2) [AB67859F] (AR v2)Track 8 accurately ripped (confidence 2) [89B3B1A2] (AR v2)
All tracks accurately ripped
End of status report
---- CUETools DB Plugin V2.1.6
[CTDB TOCID: IDAdqEi8lvDn_SU_J2_gdDJmkYI-] foundSubmit result: IDAdqEi8lvDn_SU_J2_gdDJmkYI- has been confirmedTrack | CTDB Status 1 | (4/4) Accurately ripped 2 | (4/4) Accurately ripped 3 | (4/4) Accurately ripped 4 | (4/4) Accurately ripped 5 | (4/4) Accurately ripped 6 | (4/4) Accurately ripped 7 | (4/4) Accurately ripped 8 | (4/4) Accurately ripped
==== Log checksum E6C66A85C3835878B8F569AAB136D9B27148DC327563D671E89AAE336A92B601 ====

2017: Widerstand

Издатель (лейбл): Out Of Line
Номер по каталогу: OUT 877 | 878
Продолжительность: 01:13:33
01. Der Dunkle See 04:34
02. Widerstand 04:36
03. Lava 04:39
04. Unzucht 05:33
05. Der Untergang 04:48
06. Deine Zeit läuft ab 04:40
07. Kind von Traurigkeit 04:51
08. Schwarzes Blut 04:13
09. Der letzte Tanz 06:10
10. Neuntöter 04:41
11. Schweigen 05:46
12. Kettenhund 04:05
13. Seelenblind 04:51
14. Nur die Ewigkeit 05:43
15. Ein Wort fliegt wie ein Stein 04:24

Лог создания рипа

Exact Audio Copy V1.3 from 2. September 2016
EAC extraction logfile from 18. May 2019, 17:45
Unzucht / Widerstand
Used drive : HP DVD Writer 1170d Adapter: 1 ID: 1
Read mode : SecureUtilize accurate stream : YesDefeat audio cache : YesMake use of C2 pointers : No
Read offset correction : 6Overread into Lead-In and Lead-Out : NoFill up missing offset samples with silence : YesDelete leading and trailing silent blocks : NoNull samples used in CRC calculations : YesUsed interface : Native Win32 interface for Win NT & 2000
Used output format : User Defined EncoderSelected bitrate : 1024 kBit/sQuality : HighAdd ID3 tag : NoCommand line compressor : C:\Program Files (x86)\Exact Audio Copy\Flac\flac.exeAdditional command line options : -V -8 -T "Date=%year%" -T "Genre=%genre%" %source%
TOC of the extracted CD
Track | Start | Length | Start sector | End sector --------------------------------------------------------- 1 | 0:00.00 | 4:33.42 | 0 | 20516 2 | 4:33.42 | 4:36.24 | 20517 | 41240 3 | 9:09.66 | 4:38.58 | 41241 | 62148 4 | 13:48.49 | 5:32.55 | 62149 | 87103 5 | 19:21.29 | 4:48.19 | 87104 | 108722 6 | 24:09.48 | 4:39.45 | 108723 | 129692 7 | 28:49.18 | 4:51.09 | 129693 | 151526 8 | 33:40.27 | 4:12.73 | 151527 | 170499 9 | 37:53.25 | 6:09.42 | 170500 | 198216 10 | 44:02.67 | 4:40.65 | 198217 | 219281 11 | 48:43.57 | 5:45.45 | 219282 | 245201 12 | 54:29.27 | 4:05.16 | 245202 | 263592 13 | 58:34.43 | 4:51.19 | 263593 | 285436 14 | 63:25.62 | 5:43.00 | 285437 | 311161 15 | 69:08.62 | 4:24.30 | 311162 | 330991
Range status and errors
Selected range
Filename C:\EAC\ungern666\Unzucht - Widerstand.wav
Peak level 99.7 % Extraction speed 5.7 X Range quality 99.9 % Test CRC 66F9E1A2 Copy CRC 66F9E1A2 Copy OK
No errors occurred
AccurateRip summary
Track 1 accurately ripped (confidence 2) [F49F9327] (AR v2)Track 2 accurately ripped (confidence 2) [B05CB3DD] (AR v2)Track 3 accurately ripped (confidence 2) [86F97DF6] (AR v2)Track 4 accurately ripped (confidence 2) [D83F5F4A] (AR v2)Track 5 accurately ripped (confidence 2) [5A43A2D4] (AR v2)Track 6 accurately ripped (confidence 2) [DFD36F0F] (AR v2)Track 7 accurately ripped (confidence 2) [3D7B79EF] (AR v2)Track 8 accurately ripped (confidence 2) [A7A8A13A] (AR v2)Track 9 accurately ripped (confidence 2) [AFD33C56] (AR v2)Track 10 accurately ripped (confidence 2) [CCB79687] (AR v2)Track 11 accurately ripped (confidence 2) [557C2278] (AR v2)Track 12 accurately ripped (confidence 2) [237D75E1] (AR v2)Track 13 accurately ripped (confidence 2) [5CD8BA6A] (AR v2)Track 14 accurately ripped (confidence 2) [EAE41403] (AR v2)Track 15 accurately ripped (confidence 2) [2939BE77] (AR v2)
All tracks accurately ripped
End of status report
---- CUETools DB Plugin V2.1.6
[CTDB TOCID: cURhKQkYncXNUyF..0Ds5Mb01xk-] foundSubmit result: cURhKQkYncXNUyF..0Ds5Mb01xk- has been confirmedTrack | CTDB Status 1 | (5/5) Accurately ripped 2 | (5/5) Accurately ripped 3 | (5/5) Accurately ripped 4 | (5/5) Accurately ripped 5 | (5/5) Accurately ripped 6 | (5/5) Accurately ripped 7 | (5/5) Accurately ripped 8 | (5/5) Accurately ripped 9 | (5/5) Accurately ripped 10 | (5/5) Accurately ripped 11 | (5/5) Accurately ripped 12 | (5/5) Accurately ripped 13 | (5/5) Accurately ripped 14 | (5/5) Accurately ripped 15 | (5/5) Accurately ripped
==== Log checksum A5ED818EE793B228DC596D4DAED2CFD6C5E2F7282CFFEAB17021A36FBD12875E ====
- -Материал предназначен для ознакомления!

If you like the topic, please click share to help develop our site.

To download the file disable ad blocking, and reload the page.

disable adblock How to disable ad blocking?

Download by magnet link 4.07 GB Download Torrent

Login using:

Similar topics



   
Current time is: 25-Jun 10:43 :: All times are UTC + 3