Adam Bałdych Quartet [Adam Baldych Quartet] / Sacrum Profanum
Жанр: Contemporary Jazz / Post-Bop / Jazz Modern
Носитель: CD
Страна-производитель диска (релиза): Germany
Год издания: 2019
Издатель (лейбл): ACT Music
Номер по каталогу: ACT9881
Страна исполнителя (группы): Poland
Аудиокодек: FLAC (*.flac)
Тип рипа: tracks+.cue
Продолжительность: 51:22 min
Источник: собственный рип
Наличие сканов в содержимом раздачи: [600dpi]
Треклист:
1. Spem in alium. 4:56
2. O virga ac diadema. 6:12
3. Profundis. 4:49
4. Concerto For Viola And Orchestra. 5:11
5. Bogurodzica. 5:47
6. Miserere. 4:54
7. Repetition. 5:30
8. Longing. 4:32
9. Miracle Of ‘87. 6:37
10. Jardin. 2:48

Лог создания рипа

Exact Audio Copy V1.0 beta 4 from 7. December 2014
EAC extraction logfile from 22. May 2019, 15:22
Adam Bałdych Quartet / Sacrum Profanum
Used drive : ATAPI iHAS124 E Adapter: 1 ID: 0
Read mode : SecureUtilize accurate stream : YesDefeat audio cache : YesMake use of C2 pointers : No
Read offset correction : 6Overread into Lead-In and Lead-Out : NoFill up missing offset samples with silence : YesDelete leading and trailing silent blocks : NoNull samples used in CRC calculations : YesUsed interface : Native Win32 interface for Win NT & 2000Gap handling : Appended to previous track
Used output format : User Defined EncoderSelected bitrate : 768 kBit/sQuality : HighAdd ID3 tag : NoCommand line compressor : C:\Program Files (x86)\flac-1.3.2-win\win64\flac.exeAdditional command line options : -8 -V -T "ARTIST=%artist%" -T "TITLE=%title%" -T "ALBUM=%albumtitle%" -T "DATE=%year%" -T "TRACKNUMBER=%tracknr%" -T "GENRE=%genre%" -T "COMMENT=ripped by vp_sunset" %source% -o %dest%
TOC of the extracted CD
Track | Start | Length | Start sector | End sector --------------------------------------------------------- 1 | 0:00.00 | 4:56.49 | 0 | 22248 2 | 4:56.49 | 6:12.24 | 22249 | 50172 3 | 11:08.73 | 4:49.64 | 50173 | 71911 4 | 15:58.62 | 5:11.46 | 71912 | 95282 5 | 21:10.33 | 5:47.48 | 95283 | 121355 6 | 26:58.06 | 4:54.62 | 121356 | 143467 7 | 31:52.68 | 5:30.22 | 143468 | 168239 8 | 37:23.15 | 4:32.48 | 168240 | 188687 9 | 41:55.63 | 6:37.46 | 188688 | 218508 10 | 48:33.34 | 2:48.26 | 218509 | 231134
Track 1
Filename C:\_EAC\01. Spem in alium.wav
Pre-gap length 0:00:02.00
Peak level 91.4 % Extraction speed 1.9 X Track quality 100.0 % Test CRC 2487BE8C Copy CRC 2487BE8C Accurately ripped (confidence 1) [1B6A15FE] (AR v2) Copy OK
Track 2
Filename C:\_EAC\02. O virga ac diadema.wav
Peak level 92.0 % Extraction speed 2.2 X Track quality 100.0 % Test CRC 6FEADC69 Copy CRC 6FEADC69 Accurately ripped (confidence 1) [26FAEEA9] (AR v2) Copy OK
Track 3
Filename C:\_EAC\03. Profundis.wav
Peak level 91.4 % Extraction speed 1.9 X Track quality 99.9 % Test CRC 55C4ACE0 Copy CRC 55C4ACE0 Accurately ripped (confidence 1) [2FFE78AD] (AR v2) Copy OK
Track 4
Filename C:\_EAC\04. Concerto For Viola And Orchestra.wav
Peak level 91.4 % Extraction speed 2.6 X Track quality 100.0 % Test CRC 5999237F Copy CRC 5999237F Accurately ripped (confidence 1) [A1F7C013] (AR v2) Copy OK
Track 5
Filename C:\_EAC\05. Bogurodzica.wav
Peak level 93.4 % Extraction speed 2.8 X Track quality 100.0 % Test CRC 6A3C47B2 Copy CRC 6A3C47B2 Accurately ripped (confidence 1) [F049BFAE] (AR v2) Copy OK
Track 6
Filename C:\_EAC\06. Miserere.wav
Peak level 68.0 % Extraction speed 2.3 X Track quality 99.9 % Test CRC 770ADAB2 Copy CRC 770ADAB2 Accurately ripped (confidence 1) [39617B79] (AR v2) Copy OK
Track 7
Filename C:\_EAC\07. Repetition.wav
Peak level 92.0 % Extraction speed 3.2 X Track quality 100.0 % Test CRC 9801F68C Copy CRC 9801F68C Accurately ripped (confidence 1) [BD06BAAD] (AR v2) Copy OK
Track 8
Filename C:\_EAC\08. Longing.wav
Peak level 54.8 % Extraction speed 3.3 X Track quality 100.0 % Test CRC C4DF9A5E Copy CRC C4DF9A5E Accurately ripped (confidence 1) [CBF48C21] (AR v2) Copy OK
Track 9
Filename C:\_EAC\09. Miracle Of ‘87.wav
Peak level 91.4 % Extraction speed 3.6 X Track quality 100.0 % Test CRC 2A1F9B23 Copy CRC 2A1F9B23 Accurately ripped (confidence 1) [6B77A699] (AR v2) Copy OK
Track 10
Filename C:\_EAC\10. Jardin.wav
Peak level 87.4 % Extraction speed 2.2 X Track quality 99.9 % Test CRC B16CC742 Copy CRC B16CC742 Accurately ripped (confidence 1) [1944B5CE] (AR v2) Copy OK
All tracks accurately ripped
No errors occurred
End of status report
---- CUETools DB Plugin V2.1.4
[CTDB TOCID: 5Sa8rV0FibOUO.w.TC2wiKBHB8A-] foundSubmit result: 5Sa8rV0FibOUO.w.TC2wiKBHB8A- has been confirmedTrack | CTDB Status 1 | (12/12) Accurately ripped 2 | (12/12) Accurately ripped 3 | (12/12) Accurately ripped 4 | (12/12) Accurately ripped 5 | (12/12) Accurately ripped 6 | (12/12) Accurately ripped 7 | (12/12) Accurately ripped 8 | (12/12) Accurately ripped 9 | (12/12) Accurately ripped 10 | (12/12) Accurately ripped
==== Log checksum 38C7267917D8598E5A2E927E2A9DA6012E8CACB426725819DE12359473F4CDE0 ====

Содержание индексной карты (.CUE)

REM GENRE "Jazz Modern / Fusion"REM DATE 2019REM DISCID 820C090AREM COMMENT "ExactAudioCopy v1.0b4"PERFORMER "Adam Baldych Quartet"TITLE "Sacrum Profanum"FILE "01. Spem in alium.wav" WAVE  TRACK 01 AUDIO    TITLE "Spem in alium"    PERFORMER "Adam Baldych Quartet"    INDEX 01 00:00:00FILE "02. O virga ac diadema.wav" WAVE  TRACK 02 AUDIO    TITLE "O virga ac diadema"    PERFORMER "Adam Baldych Quartet"    INDEX 01 00:00:00FILE "03. Profundis.wav" WAVE  TRACK 03 AUDIO    TITLE "Profundis"    PERFORMER "Adam Baldych Quartet"    INDEX 01 00:00:00FILE "04. Concerto For Viola And Orchestra.wav" WAVE  TRACK 04 AUDIO    TITLE "Concerto For Viola And Orchestra"    PERFORMER "Adam Baldych Quartet"    INDEX 01 00:00:00FILE "05. Bogurodzica.wav" WAVE  TRACK 05 AUDIO    TITLE "Bogurodzica"    PERFORMER "Adam Baldych Quartet"    INDEX 01 00:00:00FILE "06. Miserere.wav" WAVE  TRACK 06 AUDIO    TITLE "Miserere"    PERFORMER "Adam Baldych Quartet"    INDEX 01 00:00:00FILE "07. Repetition.wav" WAVE  TRACK 07 AUDIO    TITLE "Repetition"    PERFORMER "Adam Baldych Quartet"    INDEX 01 00:00:00FILE "08. Longing.wav" WAVE  TRACK 08 AUDIO    TITLE "Longing"    PERFORMER "Adam Baldych Quartet"    INDEX 01 00:00:00FILE "09. Miracle Of ‘87.wav" WAVE  TRACK 09 AUDIO    TITLE "Miracle Of ‘87"    PERFORMER "Adam Baldych Quartet"    INDEX 01 00:00:00FILE "10. Jardin.wav" WAVE  TRACK 10 AUDIO    TITLE "Jardin"    PERFORMER "Adam Baldych Quartet"    INDEX 01 00:00:00

Лог проверки качества

-----------------------
DON'T MODIFY THIS FILE
-----------------------
PERFORMER: auCDtect Task Manager, ver. 1.6.0 RC1 build 1.6.0.1Copyright (c) 2008-2010 y-soft. All rights reservedhttp://y-soft.org
ANALYZER: auCDtect: CD records authenticity detector, version 0.8.2Copyright (c) 2004 Oleg Berngardt. All rights reserved.Copyright (c) 2004 Alexander Djourik. All rights reserved.
FILE: 01. Spem in alium.flac Size: 25314119 Hash: 6204DBB13275279283338DB0A06CE7A4 Accuracy: -m0 Conclusion: CDDA 99% Signature: 8E77CBBFEA34480A86D8DE040CE2C91DFAE1CCB3FILE: 02. O virga ac diadema.flac Size: 35290165 Hash: 441D370D7A05268156655B646C0BE2B7 Accuracy: -m0 Conclusion: CDDA 100% Signature: B774E6604561A35372997123A1E638CB928C62AFFILE: 03. Profundis.flac Size: 29818790 Hash: 48BB00C1FC69DE2C26B64FCEB9B6A555 Accuracy: -m0 Conclusion: CDDA 100% Signature: FFC8B146442342CDD22333C7D866CA1C83D9CB70FILE: 04. Concerto For Viola And Orchestra.flac Size: 27276862 Hash: 76FC974AB1A58CB8919CA46D41A9D156 Accuracy: -m0 Conclusion: CDDA 100% Signature: 287699FDA7F9A7EC9E8F826261B914BBA3600F4AFILE: 05. Bogurodzica.flac Size: 35573170 Hash: 058C21BBB8BA68B85A2D241E69746BF8 Accuracy: -m0 Conclusion: CDDA 100% Signature: B5C03C4FCD0ACAF61F757A482F8D43F5869D9249FILE: 06. Miserere.flac Size: 17056733 Hash: 4F177CB8B8E1C087AA92F39A581E0954 Accuracy: -m0 Conclusion: CDDA 99% Signature: AFEDD64C2705326E04AFCA7CD543940CBB5E0BCCFILE: 07. Repetition.flac Size: 37272900 Hash: 47D89D9C784F204379E2B89A36C2EE07 Accuracy: -m0 Conclusion: CDDA 100% Signature: DC96E8BF6F374E6A3AE12D3C1C55E30148353336FILE: 08. Longing.flac Size: 18956278 Hash: 4F119D4D06E0E9D875E5928B345A94DF Accuracy: -m0 Conclusion: CDDA 100% Signature: D5F94169187E48E47658400BEB6CDB6B87DE5676FILE: 09. Miracle Of ‘87.flac Size: 38874627 Hash: 420725C45F8B891131BD6818272B9C1D Accuracy: -m0 Conclusion: CDDA 100% Signature: 513285016FF403826EDCDE85BA4039CC1873C297FILE: 10. Jardin.flac Size: 10022018 Hash: 2B65DA532C90129170A5F0825DFAE1FA Accuracy: -m0 Conclusion: CDDA 100% Signature: 2CEBE1476D520465EE493C3EA6525B87457FD18C

DRM.log

foobar2000 1.3.8 / Dynamic Range Meter 1.1.1log date: 2019-05-22 15:36:49
--------------------------------------------------------------------------------Analyzed: Adam Bałdych Quartet / Sacrum Profanum--------------------------------------------------------------------------------
DR Peak RMS Duration Track--------------------------------------------------------------------------------DR12 -0.77 dB -15.49 dB 4:57 01-Spem in aliumDR10 -0.72 dB -13.91 dB 6:12 02-O virga ac diademaDR10 -0.77 dB -12.87 dB 4:50 03-ProfundisDR10 -0.78 dB -15.09 dB 5:12 04-Concerto For Viola And OrchestraDR8 -0.59 dB -11.54 dB 5:48 05-BogurodzicaDR13 -3.35 dB -22.79 dB 4:55 06-MiserereDR8 -0.72 dB -10.70 dB 5:30 07-RepetitionDR11 -5.22 dB -20.52 dB 4:33 08-LongingDR11 -0.77 dB -14.61 dB 6:38 09-Miracle Of ‘87DR15 -1.16 dB -21.13 dB 2:48 10-Jardin--------------------------------------------------------------------------------
Number of tracks: 10Official DR value: DR11
Samplerate: 44100 HzChannels: 2Bits per sample: 16Bitrate: 476 kbpsCodec: FLAC================================================================================

Состав

- Adam Bałdych / violin
- Krzysztof Dys / prepared upright piano, toy piano
- Michał Barański / bass
- Dawid Fortuna / drums, crotales, gran cassa

If you like the topic, please click share to help develop our site.

To download the file disable ad blocking, and reload the page.

disable adblock How to disable ad blocking?

Download by magnet link 302 MB Download Torrent

Login using:

Similar topics



   
Current time is: 25-Jun 10:28 :: All times are UTC + 3