Сокровища Европы (Лапландия) / Trésors D'Europe. Laponie
Год выпуска: 2017
Страна: Франция
Студия: Roche Productions Et Voyage
Жанр: документальный
Продолжительность: 00:52:15
Перевод: Профессиональный (двухголосый закадровый)
Режиссер: Julien Bur/Жульен Бур
Описание: Лапландия - северный край, одно из самых малонаселенных мест в мире. Она тянется от России до Норвегии, проходя через Швецию и Финляндию. Зимой здесь стоят тридцатиградусные морозы, а летом солнце не заходит вообще. Это страна сияющего света, незыблемого покоя и огромной жизненной силы. Туда мы и отправимся, чтобы открыть сокровища этой полярной страны.
Сэмпл: http://multi-up.com/1231945
Тип релиза: HDTV 1080i
Контейнер: TS
Видео: AVC, PAL, 1920x1080, 16x9, 9500 Кbps, 25fps
Аудио: Русский, MP2, 2Ch, 48KHz, 192kbps
Аудио 2: French, MP2, 2Ch, 48KHz, 192kbps

MediaInfo

ОбщееИдентификатор                            : 1 (0x1)Полное имя                               : H:\Сокровища Европы (Лапландия)TRA2017.tsФормат                                   : MPEG-TSРазмер файла                             : 3,72 ГбайтПродолжительность                        : 52 м. 15 с.Режим общего битрейта                    : ПеременныйОбщий поток                              : 10,2 Мбит/сек
ВидеоИдентификатор : 200 (0xC8)Идентификатор меню : 1 (0x1)Формат : AVCФормат/Информация : Advanced Video CodecПрофиль формата : [email protected]Настройки формата : 3 Ref FramesПараметр CABAC формата : НетПараметр RefFrames формата : 3 кадраПараметр GOP формата : M=3, N=12Идентификатор кодека : 27Продолжительность : 52 м. 15 с.Вид битрейта : ПостоянныйБитрейт : 9500 Кбит/секШирина : 1920 пикселейВысота : 1080 пикселейСоотношение сторон : 16:9Частота кадров : 25,000 кадров/секЦветовое пространство : YUVСубдискретизация насыщенности : 4:2:0Битовая глубина : 8 битТип развёртки : ЧересстрочнаяМетод сохранения типа развёртки : Раздельные поляПорядок развёртки : Верхнее поле первоеБит/(Пиксели*Кадры) : 0.183Размер потока : 3,40 Гбайт (91%)Цветовой диапазон : LimitedОсновные цвета : BT.709Характеристики трансфера : BT.709Коэффициенты матрицы : BT.709
Аудио #1Идентификатор : 201 (0xC9)Идентификатор меню : 1 (0x1)Формат : MPEG AudioВерсия формата : Version 1Профиль формата : Layer 2Идентификатор кодека : 3Продолжительность : 52 м. 15 с.Вид битрейта : ПостоянныйБитрейт : 192 Кбит/секКаналы : 2 каналаЧастота : 48,0 КГцЧастота кадров : 41,667 кадра/сек (1152 SPF)Метод сжатия : С потерямиРазмер потока : 71,8 Мбайт (2%)Язык : Russian
Аудио #2Идентификатор : 202 (0xCA)Идентификатор меню : 1 (0x1)Формат : MPEG AudioВерсия формата : Version 1Профиль формата : Layer 2Идентификатор кодека : 3Продолжительность : 52 м. 15 с.Вид битрейта : ПостоянныйБитрейт : 192 Кбит/секКаналы : 2 каналаЧастота : 48,0 КГцЧастота кадров : 41,667 кадра/сек (1152 SPF)Метод сжатия : С потерямиРазмер потока : 71,8 Мбайт (2%)Язык : French

Скриншоты


If you like the topic, please click share to help develop our site.

To download the file disable ad blocking, and reload the page.

disable adblock How to disable ad blocking?

Download by magnet link 3.72 GB Download Torrent

Login using:

Similar topics



   
Current time is: 19-Jul 23:30 :: All times are UTC + 3