Сокровища Европы. Болгария / Trésors D'Europe. Bulgarie
Год выпуска: 2017
Страна: Франция
Студия: Roche Productions Et Voyage
Жанр: документальный
Продолжительность: 00:50:46
Перевод: Профессиональный (двухголосый закадровый)
Режиссер: Julien Bur/Жульен Бюр
Описание: В центре Балкан находится Болгария - с запада она ограничена горами, с востока Чёрным морем. В столице Болгарии Софии разнообразные архитектурные стили и религиозные сооружения образуют гармоничный ансамбль. Здесь история страны раскрывается в партитурах концерта для фортепиано или в таинственной пещере, разбудившей воображение не одного голливудского сценариста. Повсюду проявляется болгарская культурная самобытность. А высоко в горах, в стенах одного из самых красивых монастырей в мире, хранится шестисотлетняя история религии, мысли и искусства.
Сэмпл: http://multi-up.com/1231320
Тип релиза: HDTV 1080i
Контейнер: TS
Видео: AVC, PAL, 1920x1080, 16x9, 6000 Кbps, 25fps
Аудио: Русский, MP2, 2Ch, 48KHz, 192 kbps
Аудио 2: French, MP2, 2Ch, 48KHz, 192kbps

MediaInfo

ОбщееИдентификатор                            : 1 (0x1)Полное имя                               : H:\Сокровища Европы. Болгария.tsФормат                                   : MPEG-TSРазмер файла                             : 2,37 ГбайтПродолжительность                        : 50 м. 46 с.Режим общего битрейта                    : ПеременныйОбщий поток                              : 6691 Кбит/сек
ВидеоИдентификатор : 3001 (0xBB9)Идентификатор меню : 206 (0xCE)Формат : AVCФормат/Информация : Advanced Video CodecПрофиль формата : [email protected]Настройки формата : CABAC / 2 Ref FramesПараметр CABAC формата : ДаПараметр RefFrames формата : 2 кадраСтруктура изображения : FrameИдентификатор кодека : 27Продолжительность : 50 м. 46 с.Вид битрейта : ПостоянныйБитрейт : 6000 Кбит/секШирина : 1920 пикселейВысота : 1080 пикселейСоотношение сторон : 16:9Частота кадров : 25,000 кадров/секЦветовое пространство : YUVСубдискретизация насыщенности : 4:2:0Битовая глубина : 8 битТип развёртки : ЧересстрочнаяМетод сохранения типа развёртки : Чередующиеся поляПорядок развёртки : Верхнее поле первоеБит/(Пиксели*Кадры) : 0.116Размер потока : 2,12 Гбайт (89%)Цветовой диапазон : LimitedОсновные цвета : BT.709Характеристики трансфера : BT.709Коэффициенты матрицы : BT.709
Аудио #1Идентификатор : 3101 (0xC1D)Идентификатор меню : 206 (0xCE)Формат : MPEG AudioВерсия формата : Version 1Профиль формата : Layer 2Идентификатор кодека : 3Продолжительность : 50 м. 46 с.Вид битрейта : ПостоянныйБитрейт : 192 Кбит/секКаналы : 2 каналаЧастота : 48,0 КГцЧастота кадров : 41,667 кадра/сек (1152 SPF)Метод сжатия : С потерямиРазмер потока : 69,7 Мбайт (3%)Язык : Russian
Аудио #2Идентификатор : 3102 (0xC1E)Идентификатор меню : 206 (0xCE)Формат : MPEG AudioВерсия формата : Version 1Профиль формата : Layer 2Идентификатор кодека : 3Продолжительность : 50 м. 46 с.Вид битрейта : ПостоянныйБитрейт : 192 Кбит/секКаналы : 2 каналаЧастота : 48,0 КГцЧастота кадров : 41,667 кадра/сек (1152 SPF)Метод сжатия : С потерямиРазмер потока : 69,7 Мбайт (3%)Язык : English

Скриншоты


If you like the topic, please click share to help develop our site.

To download the file disable ad blocking, and reload the page.

disable adblock How to disable ad blocking?

Download by magnet link 2.37 GB Download Torrent

Login using:

Similar topics



   
Current time is: 19-Jul 23:31 :: All times are UTC + 3