Сокровища Европы. Ирландия / Trésors D'Europe. Irlande
Год выпуска: 2017
Страна: Франция
Студия: Roche Productions
Жанр: документальный
Продолжительность: 00:51:48
Перевод: Профессиональный (двухголосый закадровый)
Режиссер: Julien Bur/Жульен Бур
Описание: Республика Ирландия, западная цитадель Европы – это остров, где туристу легко прочувствовать его величие. Дублин, собор Святого Патрика и его библиотека, национальный парк Уиклоу, тюрьма, ставшая свидетелем всех страданий, творившихся на протяжении истории, замок Эшфорд и пони из легендарной Коннемары – вот пять сокровищ Ирландии, объединивших её красоту, суровость и историю. Мы отправимся туда сейчас, чтобы узнать о них побольше.
Сэмпл: http://multi-up.com/1233463
Тип релиза: HDTV 1080i
Контейнер: TS
Видео: AVC, PAL, 1920x1080, 16x9, 7001 Кbps, 25fps
Аудио: Русский, MP2, 2Ch, 48KHz, 192kbps
Аудио 2: French, MP2, 2Ch, 48KHz, 192kbps

MediaInfo

ОбщееИдентификатор                            : 1 (0x1)Полное имя                               : H:\Сокровища Европы (Ирландия) 2017TR.tsФормат                                   : MPEG-TSРазмер файла                             : 2,81 ГбайтПродолжительность                        : 51 м. 48 с.Режим общего битрейта                    : ПеременныйОбщий поток                              : 7773 Кбит/сек
ВидеоИдентификатор : 200 (0xC8)Идентификатор меню : 1 (0x1)Формат : AVCФормат/Информация : Advanced Video CodecПрофиль формата : [email protected]Настройки формата : 3 Ref FramesПараметр CABAC формата : НетПараметр RefFrames формата : 3 кадраПараметр GOP формата : M=3, N=12Идентификатор кодека : 27Продолжительность : 51 м. 48 с.Вид битрейта : ПостоянныйБитрейт : 7001 Кбит/секНоминальный битрейт : 9500 Кбит/секШирина : 1920 пикселейВысота : 1080 пикселейСоотношение сторон : 16:9Частота кадров : 25,000 кадров/секЦветовое пространство : YUVСубдискретизация насыщенности : 4:2:0Битовая глубина : 8 битТип развёртки : ЧересстрочнаяМетод сохранения типа развёртки : Раздельные поляПорядок развёртки : Верхнее поле первоеБит/(Пиксели*Кадры) : 0.135Размер потока : 2,53 Гбайт (90%)Цветовой диапазон : LimitedОсновные цвета : BT.709Характеристики трансфера : BT.709Коэффициенты матрицы : BT.709
Аудио #1Идентификатор : 3101 (0xC1D)Идентификатор меню : 1 (0x1)Формат : MPEG AudioВерсия формата : Version 1Профиль формата : Layer 2Идентификатор кодека : 3Продолжительность : 51 м. 48 с.Вид битрейта : ПостоянныйБитрейт : 192 Кбит/секКаналы : 2 каналаЧастота : 48,0 КГцЧастота кадров : 41,667 кадра/сек (1152 SPF)Метод сжатия : С потерямиРазмер потока : 71,2 Мбайт (2%)Язык : Russian
Аудио #2Идентификатор : 3102 (0xC1E)Идентификатор меню : 1 (0x1)Формат : MPEG AudioВерсия формата : Version 1Профиль формата : Layer 2Идентификатор кодека : 3Продолжительность : 51 м. 48 с.Вид битрейта : ПостоянныйБитрейт : 192 Кбит/секКаналы : 2 каналаЧастота : 48,0 КГцЧастота кадров : 41,667 кадра/сек (1152 SPF)Метод сжатия : С потерямиРазмер потока : 71,2 Мбайт (2%)Язык : English

Скриншоты


If you like the topic, please click share to help develop our site.

To download the file disable ad blocking, and reload the page.

disable adblock How to disable ad blocking?

Download by magnet link 2.81 GB Download Torrent

Login using:

Similar topics



   
Current time is: 16-Jul 21:28 :: All times are UTC + 3