United Progressive Fraternity - Planetary Overload Part 1: Loss
Жанр: Progressive Rock, Symphonic Rock
Носитель: CD
Страна-производитель диска (релиза): Россия, unofficial
Год издания: 2019
Издатель (лейбл): Giant Electric Pea
Номер по каталогу: GEPCD1061
Страна исполнителя (группы): Australia
Аудиокодек: FLAC (*.flac)
Тип рипа: image+.cue
Продолжительность: 01:14:58
Источник: собственный рип
Наличие сканов в содержимом раздачи: да
Треклист:
Phase I: Dawning On Us
01. Loss (Anthem)
02. What Happens Now?
03. Cruel Times
04. What are We Doing to Ourselves?
Phase II: Destraction and Destruction
05. Stop-Time
06. One More
07. Mercenaries
08. What If?
09. Forgive Me, My Son
Phase III: Growing
10. Dying to be Reborn
11. Seeds for Life
12. Loss to Lost

Лог создания рипа

Exact Audio Copy V1.3 from 2. September 2016
Отчёт EAC об извлечении, выполненном 11. июня 2019, 18:59
United Progressive Fraternity / Planetary Overload Part 1: Loss
Дисковод: ASUS DRW-24B3ST Adapter: 1 ID: 0
Режим чтения : ДостоверностьИспользование точного потока : ДаОтключение кэша аудио : ДаИспользование указателей C2 : Нет
Коррекция смещения при чтении : 6Способность читать области Lead-in и Lead-out : НетЗаполнение пропущенных сэмплов тишиной : ДаУдаление блоков с тишиной в начале и конце : НетПри вычислениях CRC использовались нулевые сэмплы : ДаИнтерфейс : Встроенный Win32-интерфейс для Win NT/2000
Выходной формат : Пользовательский кодировщикВыбранный битрейт : 1024 kBit/sКачество : ВысокийДобавление ID3-тега : НетУтилита сжатия : C:\Program Files (x86)\Exact Audio Copy\Flac\flac.exeДополнительные параметры : -V -8 -T "Date=%year%" -T "Genre=%genre%" %source%
TOC извлечённого CD
Трек | Старт | Длительность | Начальный сектор | Конечный сектор --------------------------------------------------------------------- 1 | 0:00.00 | 3:25.57 | 0 | 15431 2 | 3:25.57 | 4:04.24 | 15432 | 33755 3 | 7:30.06 | 8:05.64 | 33756 | 70194 4 | 15:35.70 | 3:19.01 | 70195 | 85120 5 | 18:54.71 | 6:56.20 | 85121 | 116340 6 | 25:51.16 | 2:37.14 | 116341 | 128129 7 | 28:28.30 | 6:48.57 | 128130 | 158786 8 | 35:17.12 | 1:44.59 | 158787 | 166645 9 | 37:01.71 | 7:46.58 | 166646 | 201653 10 | 44:48.54 | 5:19.44 | 201654 | 225622 11 | 50:08.23 | 19:33.38 | 225623 | 313635 12 | 69:41.61 | 5:15.67 | 313636 | 337327
Характеристики диапазона извлечения и сообщения об ошибках
Выбранный диапазон
Имя файла E:\Torrents-seed\United Progressive Fraternity - 2019 - Planetary Overload Part 1 Loss\United Progressive Fraternity - Planetary Overload Part 1- Loss.wav
Пиковый уровень 99.3 % Скорость извлечения 3.7 X Качество диапазона 100.0 % CRC теста 3E6FDD34 CRC копии 3E6FDD34 Копирование... OK
Ошибок не произошло
AccurateRip: сводка
Трек 1 отсутствует в базе данныхТрек 2 отсутствует в базе данныхТрек 3 отсутствует в базе данныхТрек 4 отсутствует в базе данныхТрек 5 отсутствует в базе данныхТрек 6 отсутствует в базе данныхТрек 7 отсутствует в базе данныхТрек 8 отсутствует в базе данныхТрек 9 отсутствует в базе данныхТрек 10 отсутствует в базе данныхТрек 11 отсутствует в базе данныхТрек 12 точность не определена (достоверность 1) [D22DF4B8], AccurateRip вернул [7B08EFD6] (AR v2)
1 трек(и) не удалось проверить на точность11 трек(и) не содержатся в базе AccurateRip
Ни один трек не прошёл проверки на точностьВ вашей базе может быть иной вариант штамповки диска
Конец отчёта
==== Контрольная сумма отчёта 91DEBFBA7FA2B7FDD67267594D2EDAA132B11A5DFD6E8E1AB6E8E7A617646712 ====

Содержание индексной карты (.CUE)

REM GENRE "Symphonic Rock"REM DATE 2019REM DISCID 8611910CREM COMMENT "ExactAudioCopy v1.3"PERFORMER "United Progressive Fraternity"TITLE "Planetary Overload Part 1: Loss "REM COMPOSER ""FILE "United Progressive Fraternity - Planetary Overload Part 1- Loss.flac" WAVE  TRACK 01 AUDIO    TITLE "Loss (Anthem)"    PERFORMER "United Progressive Fraternity"    REM COMPOSER ""    INDEX 01 00:00:00  TRACK 02 AUDIO    TITLE "What Happens Now"    PERFORMER "United Progressive Fraternity"    REM COMPOSER ""    INDEX 01 03:25:57  TRACK 03 AUDIO    TITLE "Cruel Times"    PERFORMER "United Progressive Fraternity"    REM COMPOSER ""    INDEX 01 07:30:06  TRACK 04 AUDIO    TITLE "What Are We Doing To Ourselves"    PERFORMER "United Progressive Fraternity"    REM COMPOSER ""    INDEX 01 15:35:70  TRACK 05 AUDIO    TITLE "Stop-Time"    PERFORMER "United Progressive Fraternity"    REM COMPOSER ""    INDEX 01 18:54:71  TRACK 06 AUDIO    TITLE "One More"    PERFORMER "United Progressive Fraternity"    REM COMPOSER ""    INDEX 01 25:51:16  TRACK 07 AUDIO    TITLE "Mercenaries"    PERFORMER "United Progressive Fraternity"    REM COMPOSER ""    INDEX 01 28:28:30  TRACK 08 AUDIO    TITLE "What If"    PERFORMER "United Progressive Fraternity"    REM COMPOSER ""    INDEX 01 35:17:12  TRACK 09 AUDIO    TITLE "Forgive Me, My Son"    PERFORMER "United Progressive Fraternity"    REM COMPOSER ""    INDEX 01 37:01:71  TRACK 10 AUDIO    TITLE "Dying To Be Reborn"    PERFORMER "United Progressive Fraternity"    REM COMPOSER ""    INDEX 01 44:48:54  TRACK 11 AUDIO    TITLE "Seeds For Life"    PERFORMER "United Progressive Fraternity"    REM COMPOSER ""    INDEX 01 50:08:23  TRACK 12 AUDIO    TITLE "Loss To Lost"    PERFORMER "United Progressive Fraternity"    REM COMPOSER ""    INDEX 01 69:41:61

Замер динамического диапазона (DRM)

foobar2000 1.3.17 / Dynamic Range Meter 1.1.1log date: 2019-06-11 19:03:22
--------------------------------------------------------------------------------Analyzed: United Progressive Fraternity / Planetary Overload Part 1: Loss--------------------------------------------------------------------------------
DR Peak RMS Duration Track--------------------------------------------------------------------------------DR8 -0.06 dB -12.13 dB 3:26 01-Loss (Anthem)DR7 -0.06 dB -10.51 dB 4:04 02-What Happens NowDR7 -0.06 dB -10.11 dB 8:06 03-Cruel TimesDR10 -0.06 dB -13.55 dB 3:19 04-What Are We Doing To OurselvesDR6 -0.06 dB -8.24 dB 6:56 05-Stop-TimeDR12 -0.06 dB -16.67 dB 2:37 06-One MoreDR8 -0.06 dB -10.57 dB 6:49 07-MercenariesDR10 -0.06 dB -13.55 dB 1:45 08-What IfDR7 -0.06 dB -11.74 dB 7:47 09-Forgive Me, My SonDR7 -0.06 dB -10.39 dB 5:20 10-Dying To Be RebornDR7 -0.06 dB -10.31 dB 19:34 11-Seeds For LifeDR6 -0.06 dB -10.31 dB 5:16 12-Loss To Lost--------------------------------------------------------------------------------
Number of tracks: 12Official DR value: DR8
Samplerate: 44100 HzChannels: 2Bits per sample: 16Bitrate: 908 kbpsCodec: FLAC================================================================================

Состав

- Mark Trueack (Unitopia) / Vocals
- Steve Unruh (Resistor) / Violin, Guitars, Flute, Vocals
- Christophe Lebled / Keyboards
- Cornel Wilczek / Guitars, Keys, Programing, Orchestration
- Daniel Mash (The Tangent, Maschine) / Bass
- Matthew Atherton / Keys, Acoustic Guitar, Vocals
- Marek Arnold (Stern Combo Meissen, Toxic Smile, Seven steps to the green door, Cyril) / Sax
- Joe Toscano / Drums, Vocals
- Mark Franco / Bass, Vocals
and many other guests...

If you like the topic, please click share to help develop our site.

To download the file disable ad blocking, and reload the page.

disable adblock How to disable ad blocking?

Download by magnet link 573 MB Download Torrent

Login using:

Similar topics



   
Current time is: 16-Jul 21:47 :: All times are UTC + 3