Ministry of Sound: Jungle ClassicsThe Ultimate Drum 'n' Bass & Jungle Album Жанр: Jungle, Drum & Bass, Breakbeat
Носитель: 2xCD (Mixed)
Страна-производитель диска (релиза): UK
Дата релиза: 22'th December 2011
Издатель (лейбл): Ministry Of Sound
Номер по каталогу: MOSCD274
Аудиокодек: FLAC (*.flac)
Тип рипа: tracks+.cue
Битрейт аудио: lossless
Продолжительность: 02:36:56
Источник (релизер): what
Наличие сканов в содержимом раздачи: да-
CD1:
01. U.K. Apachi with Shy FX - Original Nuttah (03:22)
02. M-Beat feat. General Levy - Incredible (03:11)
03. The Ganja Kru - Super Sharp Shooter (06:18)
04. Ray Keith - Chopper (Shy FX Remix) (02:49)
05. DJ Zink - On Fire Tonight (03:20)
06. Adam F - The Original Junglesound (03:14)
07. Urban Shakedown feat. Debo - Arsonist (Some Justice 95) (03:34)
08. Original Unknown - Valley of the Shadows (02:49)
09. DJ SS - The Lighter (02:49)
10. Dopeskillz - 6 Million Ways To Die (02:38)
11. Deep Blue - The Helicopter Tune (02:49)
12. DJ Hype feat. Ganja Max - Rinse Out (03:23)
13. Goldie Presents Rufigi Kru - Terminator (03:09)
14. Alex Reece - Pulp Fiction (03:37)
15. Roni Size - It's Jazzy (03:06)
16. Krust - Warhead (03:20)
17. Q Project - Champion Sound (Total Science 'Hardcore Will Never Die' Mix) (03:51)
18. Dillinja - Grimey (03:26)
19. Fresh - Gatekeeper (03:45)
20. Omin Trio - Renegade Snares (Foul Play Remix) (03:58)
21. Krom & Time - The License (04:18)
22. Blame - Music Takes You (04:45)
Total Time: 01:17:41-CD2:
01. Utah Saints - What Can You Do For Me (Drumsound & Bassline Smith, Original Mix) (03:53)
02. DJ Fresh Feat. Sian Evans - Louder (Drumsound & Bassline Smith Remix) (03:15)
03. Pendulum - Masochist (04:28)
04. Chase & Status Feat. Capleton - Duppy Man (03:07)
05. Katy B - Broken Record (02:57)
06. Yasmin Feat. Shy FX & Miss Dynamite - Light Up (The World) (04:01)
07. DJ Marky & XRS - LK (04:29)
08. Shimon & Andy C - Body Rock (04:25)
09. Dillinja - Twist Em Out (03:41)
10. Distorted Minds - T-10 (03:53)
11. Micky Finn & Aphrodite - Bad Ass (03:42)
12. Mulder - Don't Give A Damn (04:30)
13. Dead Dred - Dred Bass (04:03)
14. Dj Hype - Peace, Love & Unity (03:44)
15. Shy FX - The Wolf (02:59)
16. M-Beat Feat Nazlyn - Sweet Love (02:59)
17. Prizna Feat. Demoliton Man - Fire (03:23)
18. Renegade - Terrorist (03:25)
19. T Power - Mutant Jazz (03:33)
20. Wots My Code - Dubplate (03:05)
21. Sub Focus - Last Jungle (02:27)
22. Lennie De Ice - We Are I. E. (03:02)
Total Time: 01:19:14-
Лог создания рипа
CD1
Exact Audio Copy V1.0 beta 3 from 29. August 2011
EAC extraction logfile from 31. August 2012, 21:48
Various Artists / Ministry of Sound - Jungle Classics CD1 [The Ultimate Drum 'n' Bass Album]
Used drive : PLDS DVD+-RW DH-16AAS Adapter: 1 ID: 0
Read mode : SecureUtilize accurate stream : YesDefeat audio cache : YesMake use of C2 pointers : No
Read offset correction : 6Overread into Lead-In and Lead-Out : NoFill up missing offset samples with silence : YesDelete leading and trailing silent blocks : NoNull samples used in CRC calculations : YesUsed interface : Native Win32 interface for Win NT & 2000Gap handling : Appended to previous track
Used output format : User Defined EncoderSelected bitrate : 1024 kBit/sQuality : HighAdd ID3 tag : NoCommand line compressor : C:\Program Files (x86)\Exact Audio Copy\FLAC\flac.exeAdditional command line options : -8 -V -T "ARTIST=%artist%" -T "TITLE=%title%" -T "ALBUM=%albumtitle%" -T "DATE=%year%" -T "TRACKNUMBER=%tracknr%" -T "GENRE=%genre%" -T "PERFORMER=%albuminterpret%" -T "COMPOSER=%composer%" %haslyrics%--tag-from-file=LYRICS="%lyricsfile%"%haslyrics% -T "ALBUMARTIST=%albumartist%" -T "DISCNUMBER=%cdnumber%" -T "TOTALDISCS=%totalcds%" -T "TOTALTRACKS=%numtracks%" -T "COMMENT=%comment%" %source% -o %dest%
TOC of the extracted CD
Track | Start | Length | Start sector | End sector --------------------------------------------------------- 1 | 0:00.00 | 3:22.69 | 0 | 15218 2 | 3:22.69 | 3:11.74 | 15219 | 29617 3 | 6:34.68 | 6:18.27 | 29618 | 57994 4 | 12:53.20 | 2:49.18 | 57995 | 70687 5 | 15:42.38 | 3:20.48 | 70688 | 85735 6 | 19:03.11 | 3:14.62 | 85736 | 100347 7 | 22:17.73 | 3:34.44 | 100348 | 116441 8 | 25:52.42 | 2:49.31 | 116442 | 129147 9 | 28:41.73 | 2:49.31 | 129148 | 141853 10 | 31:31.29 | 2:38.35 | 141854 | 153738 11 | 34:09.64 | 2:49.32 | 153739 | 166445 12 | 36:59.21 | 3:23.21 | 166446 | 181691 13 | 40:22.42 | 3:09.13 | 181692 | 195879 14 | 43:31.55 | 3:37.30 | 195880 | 212184 15 | 47:09.10 | 3:06.28 | 212185 | 226162 16 | 50:15.38 | 3:20.35 | 226163 | 241197 17 | 53:35.73 | 3:51.40 | 241198 | 258562 18 | 57:27.38 | 3:26.08 | 258563 | 274020 19 | 60:53.46 | 3:45.67 | 274021 | 290962 20 | 64:39.38 | 3:58.29 | 290963 | 308841 21 | 68:37.67 | 4:18.25 | 308842 | 328216 22 | 72:56.17 | 4:45.39 | 328217 | 349630
Track 1
Filename G:\Dump Folder\Torrent Uploads\Jungle Classics (2011) [Flac]\Disc 1\01 - U.K. Apachi with Shy FX - Original Nuttah.wav
Pre-gap length 0:00:02.00
Peak level 97.0 % Extraction speed 4.3 X Track quality 100.0 % Test CRC 6687D8FB Copy CRC 6687D8FB Track not present in AccurateRip database Copy OK
Track 2
Filename G:\Dump Folder\Torrent Uploads\Jungle Classics (2011) [Flac]\Disc 1\02 - M-Beat feat. General Levy - Incredible.wav
Peak level 97.0 % Extraction speed 4.9 X Track quality 100.0 % Test CRC 34AAE6E7 Copy CRC 34AAE6E7 Track not present in AccurateRip database Copy OK
Track 3
Filename G:\Dump Folder\Torrent Uploads\Jungle Classics (2011) [Flac]\Disc 1\03 - The Ganja Kru - Super Sharp Shooter.wav
Peak level 97.0 % Extraction speed 5.7 X Track quality 100.0 % Test CRC D0DE76F4 Copy CRC D0DE76F4 Track not present in AccurateRip database Copy OK
Track 4
Filename G:\Dump Folder\Torrent Uploads\Jungle Classics (2011) [Flac]\Disc 1\04 - Ray Keith - Chopper (Shy FX Remix).wav
Peak level 97.0 % Extraction speed 5.6 X Track quality 100.0 % Test CRC 1FA8208A Copy CRC 1FA8208A Track not present in AccurateRip database Copy OK
Track 5
Filename G:\Dump Folder\Torrent Uploads\Jungle Classics (2011) [Flac]\Disc 1\05 - DJ Zink - On Fire Tonight.wav
Peak level 97.0 % Extraction speed 6.0 X Track quality 100.0 % Test CRC E0AD7C0E Copy CRC E0AD7C0E Track not present in AccurateRip database Copy OK
Track 6
Filename G:\Dump Folder\Torrent Uploads\Jungle Classics (2011) [Flac]\Disc 1\06 - Adam F - The Original Junglesound.wav
Peak level 97.0 % Extraction speed 6.2 X Track quality 100.0 % Test CRC BA8673B3 Copy CRC BA8673B3 Track not present in AccurateRip database Copy OK
Track 7
Filename G:\Dump Folder\Torrent Uploads\Jungle Classics (2011) [Flac]\Disc 1\07 - Urban Shakedown feat. Debo - Arsonist (Some Justice 95).wav
Peak level 97.0 % Extraction speed 6.5 X Track quality 100.0 % Test CRC 5B26AD6B Copy CRC 5B26AD6B Track not present in AccurateRip database Copy OK
Track 8
Filename G:\Dump Folder\Torrent Uploads\Jungle Classics (2011) [Flac]\Disc 1\08 - Original Unknown - Valley of the Shadows.wav
Peak level 97.0 % Extraction speed 6.5 X Track quality 100.0 % Test CRC FEF43A2D Copy CRC FEF43A2D Track not present in AccurateRip database Copy OK
Track 9
Filename G:\Dump Folder\Torrent Uploads\Jungle Classics (2011) [Flac]\Disc 1\09 - DJ SS - The Lighter.wav
Peak level 97.0 % Extraction speed 6.7 X Track quality 100.0 % Test CRC 0E08998A Copy CRC 0E08998A Track not present in AccurateRip database Copy OK
Track 10
Filename G:\Dump Folder\Torrent Uploads\Jungle Classics (2011) [Flac]\Disc 1\10 - Dopeskillz - 6 Million Ways To Die.wav
Peak level 97.0 % Extraction speed 6.9 X Track quality 100.0 % Test CRC B7D80C37 Copy CRC B7D80C37 Track not present in AccurateRip database Copy OK
Track 11
Filename G:\Dump Folder\Torrent Uploads\Jungle Classics (2011) [Flac]\Disc 1\11 - Deep Blue - The Helicopter Tune.wav
Peak level 97.0 % Extraction speed 7.1 X Track quality 100.0 % Test CRC 599D963A Copy CRC 599D963A Track not present in AccurateRip database Copy OK
Track 12
Filename G:\Dump Folder\Torrent Uploads\Jungle Classics (2011) [Flac]\Disc 1\12 - DJ Hype feat. Ganja Max - Rinse Out.wav
Peak level 97.0 % Extraction speed 7.4 X Track quality 100.0 % Test CRC A36C9EE4 Copy CRC A36C9EE4 Track not present in AccurateRip database Copy OK
Track 13
Filename G:\Dump Folder\Torrent Uploads\Jungle Classics (2011) [Flac]\Disc 1\13 - Goldie Presents Rufigi Kru - Terminator.wav
Peak level 97.0 % Extraction speed 7.6 X Track quality 100.0 % Test CRC 5D2D074D Copy CRC 5D2D074D Track not present in AccurateRip database Copy OK
Track 14
Filename G:\Dump Folder\Torrent Uploads\Jungle Classics (2011) [Flac]\Disc 1\14 - Alex Reece - Pulp Fiction.wav
Peak level 97.0 % Extraction speed 8.0 X Track quality 100.0 % Test CRC 533FC246 Copy CRC 533FC246 Track not present in AccurateRip database Copy OK
Track 15
Filename G:\Dump Folder\Torrent Uploads\Jungle Classics (2011) [Flac]\Disc 1\15 - Roni Size - It's Jazzy.wav
Peak level 97.0 % Extraction speed 7.9 X Track quality 100.0 % Test CRC FAE4828B Copy CRC FAE4828B Track not present in AccurateRip database Copy OK
Track 16
Filename G:\Dump Folder\Torrent Uploads\Jungle Classics (2011) [Flac]\Disc 1\16 - Krust - Warhead.wav
Peak level 97.0 % Extraction speed 8.2 X Track quality 100.0 % Test CRC 90B4B45C Copy CRC 90B4B45C Track not present in AccurateRip database Copy OK
Track 17
Filename G:\Dump Folder\Torrent Uploads\Jungle Classics (2011) [Flac]\Disc 1\17 - Q Project - Champion Sound (Total Science 'Hardcore Will Never Die' Mix).wav
Peak level 97.0 % Extraction speed 8.6 X Track quality 100.0 % Test CRC 128CBC4C Copy CRC 128CBC4C Track not present in AccurateRip database Copy OK
Track 18
Filename G:\Dump Folder\Torrent Uploads\Jungle Classics (2011) [Flac]\Disc 1\18 - Dillinja - Grimey.wav
Peak level 97.0 % Extraction speed 8.7 X Track quality 100.0 % Test CRC 1AAE44AA Copy CRC 1AAE44AA Track not present in AccurateRip database Copy OK
Track 19
Filename G:\Dump Folder\Torrent Uploads\Jungle Classics (2011) [Flac]\Disc 1\19 - Fresh - Gatekeeper.wav
Peak level 97.0 % Extraction speed 9.0 X Track quality 100.0 % Test CRC 57ACBC33 Copy CRC 57ACBC33 Track not present in AccurateRip database Copy OK
Track 20
Filename G:\Dump Folder\Torrent Uploads\Jungle Classics (2011) [Flac]\Disc 1\20 - Omin Trio - Renegade Snares (Foul Play Remix).wav
Peak level 97.0 % Extraction speed 7.5 X Track quality 99.9 % Test CRC D21F5C4F Copy CRC D21F5C4F Track not present in AccurateRip database Copy OK
Track 21
Filename G:\Dump Folder\Torrent Uploads\Jungle Classics (2011) [Flac]\Disc 1\21 - Krom & Time - The License.wav
Peak level 97.0 % Extraction speed 9.5 X Track quality 100.0 % Test CRC C904D34C Copy CRC C904D34C Track not present in AccurateRip database Copy OK
Track 22
Filename G:\Dump Folder\Torrent Uploads\Jungle Classics (2011) [Flac]\Disc 1\22 - Blame - Music Takes You.wav
Peak level 97.0 % Extraction speed 8.3 X Track quality 99.9 % Test CRC 50308E1F Copy CRC 50308E1F Track not present in AccurateRip database Copy OK
None of the tracks are present in the AccurateRip database
No errors occurred
End of status report
---- CUETools DB Plugin V2.1.3
[CTDB TOCID: Vz9N7ObaQQDidluWtZpe8C6_lEs-] found, Submit result: Vz9N7ObaQQDidluWtZpe8C6_lEs- has been confirmed[9b9a0de8] (4/4) Accurately ripped
==== Log checksum EE39531DEF033F9AB271D4056752EEAAB466D3DA04479B81C22CEE652E06DD86 ====
CD2
Exact Audio Copy V1.0 beta 3 from 29. August 2011
EAC extraction logfile from 1. September 2012, 7:14
Various Artists / Jungle Classics [Disc 2]
Used drive : PLDS DVD+-RW DH-16AAS Adapter: 1 ID: 0
Read mode : SecureUtilize accurate stream : YesDefeat audio cache : YesMake use of C2 pointers : No
Read offset correction : 6Overread into Lead-In and Lead-Out : NoFill up missing offset samples with silence : YesDelete leading and trailing silent blocks : NoNull samples used in CRC calculations : YesUsed interface : Native Win32 interface for Win NT & 2000Gap handling : Appended to previous track
Used output format : User Defined EncoderSelected bitrate : 1024 kBit/sQuality : HighAdd ID3 tag : NoCommand line compressor : C:\Program Files (x86)\Exact Audio Copy\FLAC\flac.exeAdditional command line options : -8 -V -T "ARTIST=%artist%" -T "TITLE=%title%" -T "ALBUM=%albumtitle%" -T "DATE=%year%" -T "TRACKNUMBER=%tracknr%" -T "GENRE=%genre%" -T "PERFORMER=%albuminterpret%" -T "COMPOSER=%composer%" %haslyrics%--tag-from-file=LYRICS="%lyricsfile%"%haslyrics% -T "ALBUMARTIST=%albumartist%" -T "DISCNUMBER=%cdnumber%" -T "TOTALDISCS=%totalcds%" -T "TOTALTRACKS=%numtracks%" -T "COMMENT=%comment%" %source% -o %dest%
TOC of the extracted CD
Track | Start | Length | Start sector | End sector --------------------------------------------------------- 1 | 0:00.00 | 3:53.20 | 0 | 17494 2 | 3:53.20 | 3:15.48 | 17495 | 32167 3 | 7:08.68 | 4:28.60 | 32168 | 52327 4 | 11:37.53 | 3:07.05 | 52328 | 66357 5 | 14:44.58 | 2:57.31 | 66358 | 79663 6 | 17:42.14 | 4:01.52 | 79664 | 97790 7 | 21:43.66 | 4:29.69 | 97791 | 118034 8 | 26:13.60 | 4:25.13 | 118035 | 137922 9 | 30:38.73 | 3:41.43 | 137923 | 154540 10 | 34:20.41 | 3:53.19 | 154541 | 172034 11 | 38:13.60 | 3:42.56 | 172035 | 188740 12 | 41:56.41 | 4:30.55 | 188741 | 209045 13 | 46:27.21 | 4:03.64 | 209046 | 227334 14 | 50:31.10 | 3:44.56 | 227335 | 244190 15 | 54:15.66 | 2:59.22 | 244191 | 257637 16 | 57:15.13 | 2:59.69 | 257638 | 271131 17 | 60:15.07 | 3:23.43 | 271132 | 286399 18 | 63:38.50 | 3:25.32 | 286400 | 301806 19 | 67:04.07 | 3:33.64 | 301807 | 317845 20 | 70:37.71 | 3:05.54 | 317846 | 331774 21 | 73:43.50 | 2:27.67 | 331775 | 342866 22 | 76:11.42 | 3:02.66 | 342867 | 356582
Track 1
Filename G:\Dump Folder\Torrent Uploads\Jungle Classics (2011) [Flac]\Disc 2\01 - Utah Saints - What Can You Do For Me (Drumsound & Bassline Smith, Original Mix).wav
Pre-gap length 0:00:02.00
Peak level 97.0 % Extraction speed 4.6 X Track quality 100.0 % Test CRC 7C9BD855 Copy CRC 7C9BD855 Track not present in AccurateRip database Copy OK
Track 2
Filename G:\Dump Folder\Torrent Uploads\Jungle Classics (2011) [Flac]\Disc 2\02 - DJ Fresh Feat. Sian Evans - Louder (Drumsound & Bassline Smith Remix).wav
Peak level 97.0 % Extraction speed 5.0 X Track quality 100.0 % Test CRC C1CA51B7 Copy CRC C1CA51B7 Track not present in AccurateRip database Copy OK
Track 3
Filename G:\Dump Folder\Torrent Uploads\Jungle Classics (2011) [Flac]\Disc 2\03 - Pendulum - Masochist.wav
Peak level 97.3 % Extraction speed 5.6 X Track quality 100.0 % Test CRC 7490B0DB Copy CRC 7490B0DB Track not present in AccurateRip database Copy OK
Track 4
Filename G:\Dump Folder\Torrent Uploads\Jungle Classics (2011) [Flac]\Disc 2\04 - Chase & Status Feat. Capleton - Duppy Man.wav
Peak level 97.0 % Extraction speed 5.6 X Track quality 100.0 % Test CRC 39FB7D52 Copy CRC 39FB7D52 Track not present in AccurateRip database Copy OK
Track 5
Filename G:\Dump Folder\Torrent Uploads\Jungle Classics (2011) [Flac]\Disc 2\05 - Katy B - Broken Record.wav
Peak level 97.0 % Extraction speed 5.8 X Track quality 100.0 % Test CRC 57776512 Copy CRC 57776512 Track not present in AccurateRip database Copy OK
Track 6
Filename G:\Dump Folder\Torrent Uploads\Jungle Classics (2011) [Flac]\Disc 2\06 - Yasmin Feat. Shy FX & Miss Dynamite - Light Up (The World).wav
Peak level 97.0 % Extraction speed 5.2 X Track quality 99.9 % Test CRC 4E8B3138 Copy CRC 4E8B3138 Track not present in AccurateRip database Copy OK
Track 7
Filename G:\Dump Folder\Torrent Uploads\Jungle Classics (2011) [Flac]\Disc 2\07 - DJ Marky & XRS - LK.wav
Peak level 97.0 % Extraction speed 5.6 X Track quality 99.9 % Test CRC 432DBA59 Copy CRC 432DBA59 Track not present in AccurateRip database Copy OK
Track 8
Filename G:\Dump Folder\Torrent Uploads\Jungle Classics (2011) [Flac]\Disc 2\08 - Shimon & Andy C - Body Rock.wav
Peak level 97.0 % Extraction speed 7.2 X Track quality 100.0 % Test CRC D97FA850 Copy CRC D97FA850 Track not present in AccurateRip database Copy OK
Track 9
Filename G:\Dump Folder\Torrent Uploads\Jungle Classics (2011) [Flac]\Disc 2\09 - Dillinja - Twist Em Out.wav
Peak level 97.0 % Extraction speed 7.2 X Track quality 100.0 % Test CRC E4B1BA28 Copy CRC E4B1BA28 Track not present in AccurateRip database Copy OK
Track 10
Filename G:\Dump Folder\Torrent Uploads\Jungle Classics (2011) [Flac]\Disc 2\10 - Distorted Minds - T-10.wav
Peak level 97.0 % Extraction speed 7.5 X Track quality 100.0 % Test CRC 5EA3BEF9 Copy CRC 5EA3BEF9 Track not present in AccurateRip database Copy OK
Track 11
Filename G:\Dump Folder\Torrent Uploads\Jungle Classics (2011) [Flac]\Disc 2\11 - Micky Finn & Aphrodite - Bad Ass.wav
Peak level 97.0 % Extraction speed 6.0 X Track quality 99.9 % Test CRC 5EBF0582 Copy CRC 5EBF0582 Track not present in AccurateRip database Copy OK
Track 12
Filename G:\Dump Folder\Torrent Uploads\Jungle Classics (2011) [Flac]\Disc 2\12 - Mulder - Don't Give A Damn.wav
Peak level 97.0 % Extraction speed 8.2 X Track quality 100.0 % Test CRC 3248FD3D Copy CRC 3248FD3D Track not present in AccurateRip database Copy OK
Track 13
Filename G:\Dump Folder\Torrent Uploads\Jungle Classics (2011) [Flac]\Disc 2\13 - Dead Dred - Dred Bass.wav
Peak level 97.9 % Extraction speed 8.3 X Track quality 100.0 % Test CRC 555F451C Copy CRC 555F451C Track not present in AccurateRip database Copy OK
Track 14
Filename G:\Dump Folder\Torrent Uploads\Jungle Classics (2011) [Flac]\Disc 2\14 - Dj Hype - Peace, Love & Unity.wav
Peak level 97.0 % Extraction speed 6.9 X Track quality 99.9 % Test CRC BB645849 Copy CRC BB645849 Track not present in AccurateRip database Copy OK
Track 15
Filename G:\Dump Folder\Torrent Uploads\Jungle Classics (2011) [Flac]\Disc 2\15 - Shy FX - The Wolf.wav
Peak level 97.0 % Extraction speed 6.5 X Track quality 99.9 % Test CRC 19E5CFA7 Copy CRC 19E5CFA7 Track not present in AccurateRip database Copy OK
Track 16
Filename G:\Dump Folder\Torrent Uploads\Jungle Classics (2011) [Flac]\Disc 2\16 - M-Beat Feat Nazlyn - Sweet Love.wav
Peak level 97.0 % Extraction speed 6.6 X Track quality 99.9 % Test CRC 9FBBD018 Copy CRC 9FBBD018 Track not present in AccurateRip database Copy OK
Track 17
Filename G:\Dump Folder\Torrent Uploads\Jungle Classics (2011) [Flac]\Disc 2\17 - Prizna Feat. Demoliton Man - Fire.wav
Peak level 97.0 % Extraction speed 8.8 X Track quality 100.0 % Test CRC C25F0A50 Copy CRC C25F0A50 Track not present in AccurateRip database Copy OK
Track 18
Filename G:\Dump Folder\Torrent Uploads\Jungle Classics (2011) [Flac]\Disc 2\18 - Renegade - Terrorist.wav
Peak level 97.0 % Extraction speed 9.0 X Track quality 100.0 % Test CRC 364D8202 Copy CRC 364D8202 Track not present in AccurateRip database Copy OK
Track 19
Filename G:\Dump Folder\Torrent Uploads\Jungle Classics (2011) [Flac]\Disc 2\19 - T Power - Mutant Jazz.wav
Peak level 97.0 % Extraction speed 9.2 X Track quality 100.0 % Test CRC EAB54144 Copy CRC EAB54144 Track not present in AccurateRip database Copy OK
Track 20
Filename G:\Dump Folder\Torrent Uploads\Jungle Classics (2011) [Flac]\Disc 2\20 - Wots My Code - Dubplate.wav
Peak level 97.0 % Extraction speed 9.2 X Track quality 100.0 % Test CRC BE85DE29 Copy CRC BE85DE29 Track not present in AccurateRip database Copy OK
Track 21
Filename G:\Dump Folder\Torrent Uploads\Jungle Classics (2011) [Flac]\Disc 2\21 - Sub Focus - Last Jungle.wav
Peak level 97.0 % Extraction speed 8.9 X Track quality 100.0 % Test CRC 2E852BEF Copy CRC 2E852BEF Track not present in AccurateRip database Copy OK
Track 22
Filename G:\Dump Folder\Torrent Uploads\Jungle Classics (2011) [Flac]\Disc 2\22 - Lennie De Ice - We Are I. E..wav
Peak level 97.0 % Extraction speed 9.3 X Track quality 100.0 % Test CRC 3ECAF386 Copy CRC 3ECAF386 Track not present in AccurateRip database Copy OK
None of the tracks are present in the AccurateRip database
No errors occurred
End of status report
---- CUETools DB Plugin V2.1.3
[CTDB TOCID: ZZvfhLyIX4b64FiBuhZnjf5Bkds-] found, Submit result: ZZvfhLyIX4b64FiBuhZnjf5Bkds- has been confirmed[624b31d3] (4/4) Accurately ripped
==== Log checksum 0A29E986B115587849B5DC9621A4B96196654D7E085EF257896F8317887C807F ====
Содержание индексной карты (.CUE)
CD1
REM GENRE "Drum & Bass"REM DATE 2011REM DISCID 38123516REM COMMENT "ExactAudioCopy v1.0b3"PERFORMER "Various Artists"TITLE "Ministry of Sound - Jungle Classics CD1 [The Ultimate Drum 'n' Bass Album]"FILE "01 - U.K. Apachi with Shy FX - Original Nuttah.flac" WAVE TRACK 01 AUDIO TITLE "Original Nuttah" PERFORMER "U.K. Apachi with Shy FX" INDEX 01 00:00:00FILE "02 - M-Beat feat. General Levy - Incredible.flac" WAVE TRACK 02 AUDIO TITLE "Incredible" PERFORMER "M-Beat feat. General Levy" INDEX 01 00:00:00FILE "03 - The Ganja Kru - Super Sharp Shooter.flac" WAVE TRACK 03 AUDIO TITLE "Super Sharp Shooter" PERFORMER "The Ganja Kru" INDEX 01 00:00:00FILE "04 - Ray Keith - Chopper (Shy FX Remix).flac" WAVE TRACK 04 AUDIO TITLE "Chopper (Shy FX Remix)" PERFORMER "Ray Keith" INDEX 01 00:00:00FILE "05 - DJ Zink - On Fire Tonight.flac" WAVE TRACK 05 AUDIO TITLE "On Fire Tonight" PERFORMER "DJ Zink" INDEX 01 00:00:00FILE "06 - Adam F - The Original Junglesound.flac" WAVE TRACK 06 AUDIO TITLE "The Original Junglesound" PERFORMER "Adam F" INDEX 01 00:00:00FILE "07 - Urban Shakedown feat. Debo - Arsonist (Some Justice 95).flac" WAVE TRACK 07 AUDIO TITLE "Arsonist (Some Justice 95)" PERFORMER "Urban Shakedown feat. Debo" INDEX 01 00:00:00FILE "08 - Original Unknown - Valley of the Shadows.flac" WAVE TRACK 08 AUDIO TITLE "Valley of the Shadows" PERFORMER "Original Unknown" INDEX 01 00:00:00FILE "09 - DJ SS - The Lighter.flac" WAVE TRACK 09 AUDIO TITLE "The Lighter" PERFORMER "DJ SS" INDEX 01 00:00:00FILE "10 - Dopeskillz - 6 Million Ways To Die.flac" WAVE TRACK 10 AUDIO TITLE "6 Million Ways To Die" PERFORMER "Dopeskillz" INDEX 01 00:00:00FILE "11 - Deep Blue - The Helicopter Tune.flac" WAVE TRACK 11 AUDIO TITLE "The Helicopter Tune" PERFORMER "Deep Blue" INDEX 01 00:00:00FILE "12 - DJ Hype feat. Ganja Max - Rinse Out.flac" WAVE TRACK 12 AUDIO TITLE "Rinse Out" PERFORMER "DJ Hype feat. Ganja Max" INDEX 01 00:00:00FILE "13 - Goldie Presents Rufigi Kru - Terminator.flac" WAVE TRACK 13 AUDIO TITLE "Terminator" PERFORMER "Goldie Presents Rufigi Kru" INDEX 01 00:00:00FILE "14 - Alex Reece - Pulp Fiction.flac" WAVE TRACK 14 AUDIO TITLE "Pulp Fiction" PERFORMER "Alex Reece" INDEX 01 00:00:00FILE "15 - Roni Size - It's Jazzy.flac" WAVE TRACK 15 AUDIO TITLE "It's Jazzy" PERFORMER "Roni Size" INDEX 01 00:00:00FILE "16 - Krust - Warhead.flac" WAVE TRACK 16 AUDIO TITLE "Warhead" PERFORMER "Krust" INDEX 01 00:00:00FILE "17 - Q Project - Champion Sound (Total Science 'Hardcore Will Never Die' Mix).flac" WAVE TRACK 17 AUDIO TITLE "Champion Sound (Total Science 'Hardcore Will Never Die' Mix)" PERFORMER "Q Project" INDEX 01 00:00:00FILE "18 - Dillinja - Grimey.flac" WAVE TRACK 18 AUDIO TITLE "Grimey" PERFORMER "Dillinja" INDEX 01 00:00:00FILE "19 - Fresh - Gatekeeper.flac" WAVE TRACK 19 AUDIO TITLE "Gatekeeper" PERFORMER "Fresh" INDEX 01 00:00:00FILE "20 - Omin Trio - Renegade Snares (Foul Play Remix).flac" WAVE TRACK 20 AUDIO TITLE "Renegade Snares (Foul Play Remix)" PERFORMER "Omin Trio" INDEX 01 00:00:00FILE "21 - Krom & Time - The License.flac" WAVE TRACK 21 AUDIO TITLE "The License" PERFORMER "Krom & Time" INDEX 01 00:00:00FILE "22 - Blame - Music Takes You.flac" WAVE TRACK 22 AUDIO TITLE "Music Takes You" PERFORMER "Blame" INDEX 01 00:00:00
CD2
REM GENRE "Drum & Bass"REM DATE 2011REM DISCID 44129216REM COMMENT "ExactAudioCopy v1.0b3"PERFORMER "Various Artists"TITLE "Ministry of Sound - Jungle Classics CD2 [The Ultimate Drum 'n' Bass Album]"FILE "01 - Utah Saints - What Can You Do For Me (Drumsound & Bassline Smith, Original Mix).flac" WAVE TRACK 01 AUDIO TITLE "What Can You Do For Me (Drumsound & Bassline Smith, Original Mix)" PERFORMER "Utah Saints" INDEX 01 00:00:00FILE "02 - DJ Fresh Feat. Sian Evans - Louder (Drumsound & Bassline Smith Remix).flac" WAVE TRACK 02 AUDIO TITLE "Louder (Drumsound & Bassline Smith Remix)" PERFORMER "DJ Fresh Feat. Sian Evans" INDEX 01 00:00:00FILE "03 - Pendulum - Masochist.flac" WAVE TRACK 03 AUDIO TITLE "Masochist" PERFORMER "Pendulum" INDEX 01 00:00:00FILE "04 - Chase & Status Feat. Capleton - Duppy Man.flac" WAVE TRACK 04 AUDIO TITLE "Duppy Man" PERFORMER "Chase & Status Feat. Capleton" INDEX 01 00:00:00FILE "05 - Katy B - Broken Record.flac" WAVE TRACK 05 AUDIO TITLE "Broken Record" PERFORMER "Katy B" INDEX 01 00:00:00FILE "06 - Yasmin Feat. Shy FX & Miss Dynamite - Light Up (The World).flac" WAVE TRACK 06 AUDIO TITLE "Light Up (The World)" PERFORMER "Yasmin Feat. Shy FX & Miss Dynamite" INDEX 01 00:00:00FILE "07 - DJ Marky & XRS - LK.flac" WAVE TRACK 07 AUDIO TITLE "LK" PERFORMER "DJ Marky & XRS" INDEX 01 00:00:00FILE "08 - Shimon & Andy C - Body Rock.flac" WAVE TRACK 08 AUDIO TITLE "Body Rock" PERFORMER "Shimon & Andy C" INDEX 01 00:00:00FILE "09 - Dillinja - Twist Em Out.flac" WAVE TRACK 09 AUDIO TITLE "Twist Em Out" PERFORMER "Dillinja" INDEX 01 00:00:00FILE "10 - Distorted Minds - T-10.flac" WAVE TRACK 10 AUDIO TITLE "T-10" PERFORMER "Distorted Minds" INDEX 01 00:00:00FILE "11 - Micky Finn & Aphrodite - Bad Ass.flac" WAVE TRACK 11 AUDIO TITLE "Bad Ass" PERFORMER "Micky Finn & Aphrodite" INDEX 01 00:00:00FILE "12 - Mulder - Don't Give A Damn.flac" WAVE TRACK 12 AUDIO TITLE "Don't Give A Damn" PERFORMER "Mulder" INDEX 01 00:00:00FILE "13 - Dead Dred - Dred Bass.flac" WAVE TRACK 13 AUDIO TITLE "Dred Bass" PERFORMER "Dead Dred" INDEX 01 00:00:00FILE "14 - Dj Hype - Peace, Love & Unity.flac" WAVE TRACK 14 AUDIO TITLE "Peace, Love & Unity" PERFORMER "Dj Hype" INDEX 01 00:00:00FILE "15 - Shy FX - The Wolf.flac" WAVE TRACK 15 AUDIO TITLE "The Wolf" PERFORMER "Shy FX" INDEX 01 00:00:00FILE "16 - M-Beat Feat Nazlyn - Sweet Love.flac" WAVE TRACK 16 AUDIO TITLE "Sweet Love" PERFORMER "M-Beat Feat Nazlyn" INDEX 01 00:00:00FILE "17 - Prizna Feat. Demoliton Man - Fire.flac" WAVE TRACK 17 AUDIO TITLE "Fire" PERFORMER "Prizna Feat. Demoliton Man" INDEX 01 00:00:00FILE "18 - Renegade - Terrorist.flac" WAVE TRACK 18 AUDIO TITLE "Terrorist" PERFORMER "Renegade" INDEX 01 00:00:00FILE "19 - T Power - Mutant Jazz.flac" WAVE TRACK 19 AUDIO TITLE "Mutant Jazz" PERFORMER "T Power" INDEX 01 00:00:00FILE "20 - Wots My Code - Dubplate.flac" WAVE TRACK 20 AUDIO TITLE "Dubplate" PERFORMER "Wots My Code" INDEX 01 00:00:00FILE "21 - Sub Focus - Last Jungle.flac" WAVE TRACK 21 AUDIO TITLE "Last Jungle" PERFORMER "Sub Focus" INDEX 01 00:00:00FILE "22 - Lennie De Ice - We Are I. E..flac" WAVE TRACK 22 AUDIO TITLE "We Are I. E." PERFORMER "Lennie De Ice" INDEX 01 00:00:00
Лог проверки качества
CD1
AUDIOCHECKER v2.0 beta (build 457) - by Dester - [email protected]~~~~~~~~~~~~~~~~~~~~~~~~~~~~~~~~~~-=== DO NOT EDIT THIS FILE! ===-
Path: ...\Disc 1
01 -=- 01 - U.K. Apachi with Shy FX - Original Nuttah.flac -=- MPEG (93%)02 -=- 02 - M-Beat feat. General Levy - Incredible.flac -=- CDDA (100%)03 -=- 03 - The Ganja Kru - Super Sharp Shooter.flac -=- MPEG (99%)04 -=- 04 - Ray Keith - Chopper (Shy FX Remix).flac -=- CDDA (76%)05 -=- 05 - DJ Zink - On Fire Tonight.flac -=- CDDA (100%)06 -=- 06 - Adam F - The Original Junglesound.flac -=- CDDA (100%)07 -=- 07 - Urban Shakedown feat. Debo - Arsonist (Some Justice 95).flac -=- CDDA (100%)08 -=- 08 - Original Unknown - Valley of the Shadows.flac -=- CDDA (100%)09 -=- 09 - DJ SS - The Lighter.flac -=- CDDA (100%)10 -=- 10 - Dopeskillz - 6 Million Ways To Die.flac -=- CDDA (100%)11 -=- 11 - Deep Blue - The Helicopter Tune.flac -=- CDDA (100%)12 -=- 12 - DJ Hype feat. Ganja Max - Rinse Out.flac -=- CDDA (100%)13 -=- 13 - Goldie Presents Rufigi Kru - Terminator.flac -=- CDDA (100%)14 -=- 14 - Alex Reece - Pulp Fiction.flac -=- CDDA (100%)15 -=- 15 - Roni Size - It's Jazzy.flac -=- CDDA (100%)16 -=- 16 - Krust - Warhead.flac -=- CDDA (100%)17 -=- 17 - Q Project - Champion Sound (Total Science 'Hardcore Will Never Die' Mix).flac -=- CDDA (100%)18 -=- 18 - Dillinja - Grimey.flac -=- CDDA (99%)19 -=- 19 - Fresh - Gatekeeper.flac -=- CDDA (100%)20 -=- 20 - Omin Trio - Renegade Snares (Foul Play Remix).flac -=- CDDA (100%)21 -=- 21 - Krom & Time - The License.flac -=- CDDA (54%)22 -=- 22 - Blame - Music Takes You.flac -=- CDDA (100%)
Summary 88,05% CDDA
168379796
CD2
AUDIOCHECKER v2.0 beta (build 457) - by Dester - [email protected]~~~~~~~~~~~~~~~~~~~~~~~~~~~~~~~~~~-=== DO NOT EDIT THIS FILE! ===-
Path: ...\Disc 2
01 -=- 01 - Utah Saints - What Can You Do For Me (Drumsound & Bassline Smith, Original Mix).flac -=- CDDA (100%)02 -=- 02 - DJ Fresh Feat. Sian Evans - Louder (Drumsound & Bassline Smith Remix).flac -=- CDDA (100%)03 -=- 03 - Pendulum - Masochist.flac -=- MPEG (80%)04 -=- 04 - Chase & Status Feat. Capleton - Duppy Man.flac -=- CDDA (100%)05 -=- 05 - Katy B - Broken Record.flac -=- CDDA (100%)06 -=- 06 - Yasmin Feat. Shy FX & Miss Dynamite - Light Up (The World).flac -=- CDDA (99%)07 -=- 07 - DJ Marky & XRS - LK.flac -=- CDDA (99%)08 -=- 08 - Shimon & Andy C - Body Rock.flac -=- CDDA (100%)09 -=- 09 - Dillinja - Twist Em Out.flac -=- CDDA (100%)10 -=- 10 - Distorted Minds - T-10.flac -=- CDDA (100%)11 -=- 11 - Micky Finn & Aphrodite - Bad Ass.flac -=- CDDA (99%)12 -=- 12 - Mulder - Don't Give A Damn.flac -=- CDDA (100%)13 -=- 13 - Dead Dred - Dred Bass.flac -=- CDDA (100%)14 -=- 14 - Dj Hype - Peace, Love & Unity.flac -=- CDDA (100%)15 -=- 15 - Shy FX - The Wolf.flac -=- CDDA (100%)16 -=- 16 - M-Beat Feat Nazlyn - Sweet Love.flac -=- CDDA (99%)17 -=- 17 - Prizna Feat. Demoliton Man - Fire.flac -=- CDDA (100%)18 -=- 18 - Renegade - Terrorist.flac -=- CDDA (100%)19 -=- 19 - T Power - Mutant Jazz.flac -=- CDDA (100%)20 -=- 20 - Wots My Code - Dubplate.flac -=- CDDA (100%)21 -=- 21 - Sub Focus - Last Jungle.flac -=- CDDA (100%)22 -=- 22 - Lennie De Ice - We Are I. E..flac -=- CDDA (100%)
Summary 96,18% CDDA
49336532

If you like the topic, please click share to help develop our site.

To download the file disable ad blocking, and reload the page.

disable adblock How to disable ad blocking?

Download by magnet link 1.04 GB Download Torrent

Login using:



   
Current time is: 25-Jun 10:27 :: All times are UTC + 3