Есть ли жизнь на Марсе?- Как сказал герой одного известного фильма "есть жизнь на Марсе, нет жизни на Марсе - науке неизвестно!"
Для получения ответа на этот вопрос НАСА отправило к Марсу целый флот исследовательских зондов, в том
числе, роботов-марсоходов. Они передали на Землю массу ценной информации с видами планеты, состава
грунта и многое другое, сделали интересные открытия, расширившие наше представление о красной планете.
Не проясненным остался лишь один вопрос, а есть ли жизнь на Марсе?) Эта подборка фильмов посвящена
вопросам исследования Марса, и будет пополняться по мере появления новых фильмов по этой теме
.
Список фильмов (описание, скриншоты) :
#01. NG: Марсианские роботы / Martian Robots
Марсианские роботы / Martian Robots
Год выпуска: 2008
Страна: США
Жанр: Документальный
Продолжительность: 47:28
Перевод: Профессиональный (одноголосый)
Русские субтитры: Нет
Описание:
Миссия марсоходов Спирит и Опотьюнити начавшаяся в 2004 г., и растянувшаяся
на годы, а не на 3 месяца, как планировалось. Фильм предваряется сообщением:
All animation features the actual terrain and topography of Mars captured by rover
cameras and orbiters. Это придает больший вес показанным в фильме кадрам.
* * *
Благодарности автору релиза.
Качество: HDTV
Формат: MKV
Видео кодек: x286
Аудио кодек: AC3
Видео: 720p (16/9) at 25.000 fps, 2755 Kbps
Аудио: Audio #1: Russian DD 5.1, 384 Kbps (default). Audio #2: English DD 5.1, 384 Kbps.
MediaInfo
GeneralComplete name : NG.Martian.Robots.2008.HDTV.720p.x264.AC3.Rus.mkvFormat : MatroskaFile size : 1.22 GiBDuration : 47mn 28sOverall bit rate : 3 680 KbpsEncoded date : UTC 2009-07-03 15:11:46Writing application : mkvmerge v2.4.1 ('Use Me') built on Dec 5 2008 18:30:05Writing library : libebml v0.7.7 + libmatroska v0.8.1
VideoID : 1Format : AVCFormat/Info : Advanced Video CodecFormat profile : High@L5.1Format settings, CABAC : YesFormat settings, ReFrames : 5 framesMuxing mode : Container profile=Unknown@5.1Codec ID : V_MPEG4/ISO/AVCDuration : 47mn 28sBit rate : 2 755 KbpsNominal bit rate : 2 908 KbpsWidth : 1 280 pixelsHeight : 720 pixelsDisplay aspect ratio : 16/9Frame rate : 25.000 fpsResolution : 24 bitsColorimetry : 4:2:0Scan type : ProgressiveBits/(Pixel*Frame) : 0.120Title : VideoWriting library : x264 core 60 r900 a9af942Encoding settings : cabac=1 / ref=5 / deblock=1:0:0 / analyse=0x3:0x133 / me=umh / subme=6 / brdo=1 / mixed_ref=1 / me_range=8/ chroma_me=1 / trellis=1 / 8x8dct=1 / cqm=0 / deadzone=21,11 / chroma_qp_offset=0 / threads=3 / nr=0 / decimate=1 / mbaff=0 / bframes=3/ b_pyramid=1 / b_adapt=1 / b_bias=0 / direct=3 / wpredb=1 / bime=1 / keyint=250 / keyint_min=50 / scenecut=40(pre) / rc=2pass / bitrate=2908/ ratetol=1.0 / rceq='blurCplx^(1-qComp)' / qcomp=1.00 / qpmin=10 / qpmax=51 / qpstep=4 / cplxblur=20.0 / qblur=0.5 / ip_ratio=1.40/ pb_ratio=1.30 / aq=2:1.00
Audio #1ID : 2Format : AC-3Format/Info : Audio Coding 3Codec ID : A_AC3Duration : 47mn 28sBit rate mode : ConstantBit rate : 384 KbpsChannel(s) : 6 channelsChannel positions : Front: L C R, Surround: L R, LFESampling rate : 48.0 KHzTitle : AudioLanguage : Russian
Audio #2ID : 3Format : AC-3Format/Info : Audio Coding 3Codec ID : A_AC3Duration : 47mn 28sBit rate mode : ConstantBit rate : 384 KbpsChannel(s) : 6 channelsChannel positions : Front: L C R, Surround: L R, LFESampling rate : 48.0 KHzTitle : AudioLanguage : English
Скриншоты Исходный релиз dich.
#02. PBS Nova: Есть ли жизнь на Марсе? / Is There Life on Mars?
Есть ли жизнь на Марсе? / Is There Life on Mars?
Год выпуска: 2008
Страна: США
Жанр: Документальный
Продолжительность: 52:37
Перевод: Субтитры
Русские субтитры: Есть (отдельный файл)
Описание:
Более четырех лет марсоходы Спирит и Опотьюнити бороздят просторы
красной планеты. За это время они собрали массу научной информации,
пережили штормы и проблемы с питанием, застревали в зыбучих песках,
повредили колеса и пережили многое другое. В 2008 году к их компании
присоединился геологический зонд Феникс все с теми же задачами
поиска признаков жизни.
Доп. информация: PBS Nova: Is There Life on Mars
За что ему отдельная благодарность. Перевод: Ева Гарза.
Качество: HDTV
Формат: AVI
Видео кодек: XviD
Аудио кодек: AC3
Видео: 720p (16/9) at 29.970 fps, 4100 Kbps
Аудио: English DD 5.1, 384 Kbps
MediaInfo
GeneralComplete name : PBS Nova - Is There Life on Mars (2008.720p.HDTV.AC3-SoS).aviFormat : AVIFormat/Info : Audio Video InterleaveFile size : 1.65 GiBDuration : 52mn 37sOverall bit rate : 4 492 KbpsWriting application : VirtualDubMod 1.5.4.1 (build 2178/release)Writing library : VirtualDubMod build 2178/release
VideoFormat : MPEG-4 VisualFormat profile : Streaming Video@L1Format settings, BVOP : YesFormat settings, QPel : NoFormat settings, GMC : No warppointsFormat settings, Matrix : CustomCodec ID : XVIDCodec ID/Hint : XviDDuration : 52mn 37sBit rate : 4 100 KbpsWidth : 1 280 pixelsHeight : 720 pixelsDisplay aspect ratio : 16/9Frame rate : 29.970 fpsResolution : 24 bitsColorimetry : 4:2:0Scan type : ProgressiveBits/(Pixel*Frame) : 0.148Stream size : 1.51 GiB (91%)Writing library : XviD 1.2.0.dev47 (UTC 2006-11-01)
AudioFormat : AC-3Format/Info : Audio Coding 3Codec ID : 2000Duration : 52mn 37sBit rate mode : ConstantBit rate : 384 KbpsChannel(s) : 6 channelsChannel positions : Front: L C R, Surround: L R, LFESampling rate : 48.0 KHzStream size : 145 MiB (9%)Alignment : Split accross interleavesInterleave, duration : 96 ms (2.88 video frames)Interleave, preload duration : 96 ms
Скриншоты --

Для скачивания файла отключите блокировку рекламы и перезагрузите страницу.

disable adblock Как отключить блокировку рекламы?

Скачать по магнет ссылке 2,87 GB 

Войти с помощью:

Похожие раздачи

Внимание! Контент 18+ если вы младше данного возраста, НЕ переходите по ссылке!!!


   
Текущее время: 16-Авг 08:31 :: Часовой пояс: UTC ± 0