НЕспокойной ночи! (35 серий)
Год выпуска: 2013-2016
Страна: Россия
Жанр: Документальный
Продолжительность: 35 х 26 минут
Перевод: Не требуется
Описание: Когда закрываются музеи и рестораны, когда заканчивает свою работу общественный транспорт и заходит солнце, а жаворонки видят девятый сон, совы выходят на охоту... за впечатлениями и приключениями! А вместе с ними - и ведущий Артем Хворостухин.
Доп. информация: IPTV Remux (запись потока без перекодирования)
Тип релиза: HDTV 1080i
Контейнер: TS
Видео: AVC H.264, 1920x1080i (16:9), 25 fps, 7274 kbps , 0.140 bits/pixel
Аудио: MPEG Audio, 2 channels, 192 kbps, 48KHz
Список серий:
01. НЕспокойной ночи! Афины
02. НЕспокойной ночи! Баку - Фильм 1
03. НЕспокойной ночи! Баку - Фильм 2
04. НЕспокойной ночи! Гонконг - Фильм 1
05. НЕспокойной ночи! Гонконг - Фильм 2
06. НЕспокойной ночи! Порту
07. НЕспокойной ночи! Лазурный берег - Фильм 1
08. НЕспокойной ночи! Лазурный берег - Фильм 2
09. НЕспокойной ночи! Санкт-Петербург - Фильм 1
10. НЕспокойной ночи! Санкт-Петербург - Фильм 2
11. НЕспокойной ночи! Санкт-Петербург - Фильм 3
12. НЕспокойной ночи! Тель-Авив - Фильм 1
13. НЕспокойной ночи! Тель-Авив - Фильм 2
14. НЕспокойной ночи! Бангкок - Фильм 1
15. НЕспокойной ночи! Бангкок - Фильм 2
16. НЕспокойной ночи! Будапешт - Фильм 1
17. НЕспокойной ночи! Будапешт - Фильм 2
18. НЕспокойной ночи! Москва - Фильм 1
19. НЕспокойной ночи! Москва - Фильм 2
20. НЕспокойной ночи! Москва - Фильм 3
21. НЕспокойной ночи! Рим - Фильм 1
22. НЕспокойной ночи! Рим - Фильм 2
23. НЕспокойной ночи! Сеул - Фильм 1
24. НЕспокойной ночи! Сеул - Фильм 2
25. НЕспокойной ночи! Сочи - Фильм 1
26. НЕспокойной ночи! Сочи - Фильм 2
27. НЕспокойной ночи! Мальта - Фильм 1
28. НЕспокойной ночи! Мальта - Фильм 2
29. НЕспокойной ночи! Таллин - Фильм 1
30. НЕспокойной ночи! Таллин - Фильм 2
31. НЕспокойной ночи! Хельсинки - Фильм 1
32. НЕспокойной ночи! Хельсинки - Фильм 2
33. Неспокойной ночи! Монако
34. Неспокойной ночи! Мадрид - Фильм 1
35. Неспокойной ночи! Мадрид - Фильм 2
MediaInfo
GeneralID : 1 (0x1)Complete name : 09. НЕспокойной ночи! Санкт-Петербург - Фильм 1.tsFormat : MPEG-TSFile size : 1.41 GiBDuration : 25mn 44sOverall bit rate mode : VariableOverall bit rate : 7 856 Kbps
VideoID : 69 (0x45)Menu ID : 1 (0x1)Format : AVCFormat/Info : Advanced Video CodecFormat profile : High@L4.0Format settings, CABAC : YesFormat settings, ReFrames : 4 framesCodec ID : 27Duration : 25mn 44sBit rate : 7 274 KbpsWidth : 1 920 pixelsHeight : 1 080 pixelsDisplay aspect ratio : 16:9Frame rate : 25.000 fpsColor space : YUVChroma subsampling : 4:2:0Bit depth : 8 bitsScan type : MBAFFBits/(Pixel*Frame) : 0.140Stream size : 1.31 GiB (93%)
AudioID : 68 (0x44)Menu ID : 1 (0x1)Format : MPEG AudioFormat version : Version 1Format profile : Layer 2Codec ID : 3Duration : 25mn 44sBit rate mode : ConstantBit rate : 192 KbpsChannel(s) : 2 channelsSampling rate : 48.0 KHzCompression mode : LossyStream size : 35.4 MiB (2%)Language : English
Скриншоты

To download the file disable ad blocking, and reload the page.

disable adblock How to disable ad blocking?

Download by magnet link 48.43 GB Download Torrent

Login using:

Similar topics



   
Current time is: 18-Oct 19:51 :: All times are UTC ± 0