Остров Пякяха
Год выпуска: 2016
Страна: Россия
Жанр: Документальный
Продолжительность: 00:11:59
Перевод: Не требуется
Описание: Пякяхинское месторождение - уникальное и по своим природным свойствам и по методам освоения. По сути - это рукотворный остров среди непроходимых болот полуострова Ямал. Летом сюда можно попасть только вертолетом, в холодное время еще по зимнику - трассе, проложенной по замерзшей тундре. Несмотря на это, всего за два года здесь вырос целый комплекс высокотехнологичных объектов по добыче и подготовке нефти, газа и конденсата. Пякяхинское месторождение - новое и очень перспективное. Оно уже вошло в историю своей значимостью, сложностью объектов и скоростью разработки. И это только начало большой работы по освоению арктических недр.
Доп. информация: IPTV Remux (запись потока без перекодирования)
NB! Если при воспроизведении файла на компьютере наблюдаются проблемы с картинкой, попробуйте в используемом плеере (например, Pot Player и тд) отключить параметр "DXVA".
Тип релиза: HDTV 1080i
Контейнер: MKV
Видео: AVC H.264, 1920x1080i (16:9), 25 fps, 11.2 Mbps, 0.215 bits/pixel
Аудио: MPEG Audio, 2 channels, 192 kbps, 48KHz
MediaInfo
GeneralComplete name : Остров Пякяха.mkvFormat : MatroskaFormat version : Version 2File size : 993 MiBDuration : 11mn 59sOverall bit rate : 11.6 MbpsEncoded date : UTC 2016-12-21 20:58:37Writing application : mkvmerge v7.7.0 ('Six Voices') 32bit built on Feb 28 2015 23:23:00Writing library : libebml v1.3.1 + libmatroska v1.4.2
VideoID : 1Format : AVCFormat/Info : Advanced Video CodecFormat profile : High@L4.0Format settings, CABAC : YesFormat settings, ReFrames : 4 framesCodec ID : V_MPEG4/ISO/AVCDuration : 11mn 59sBit rate : 11.2 MbpsWidth : 1 920 pixelsHeight : 1 080 pixelsDisplay aspect ratio : 16:9Frame rate mode : ConstantFrame rate : 25.000 fpsColor space : YUVChroma subsampling : 4:2:0Bit depth : 8 bitsScan type : InterlacedScan order : Top Field FirstBits/(Pixel*Frame) : 0.215Stream size : 957 MiB (96%)Default : YesForced : NoColor primaries : BT.709Transfer characteristics : BT.709Matrix coefficients : BT.709
AudioID : 2Format : MPEG AudioFormat version : Version 1Format profile : Layer 2Codec ID : A_MPEG/L2Codec ID/Hint : MP2Duration : 11mn 59sBit rate mode : ConstantBit rate : 192 KbpsChannel(s) : 2 channelsSampling rate : 48.0 KHzCompression mode : LossyStream size : 16.5 MiB (2%)Language : RussianDefault : YesForced : No
Скриншоты

Для скачивания файла отключите блокировку рекламы и перезагрузите страницу.

disable adblock Как отключить блокировку рекламы?

Скачать по магнет ссылке 993 MB 

Войти с помощью:



   
Текущее время: 16-Авг 08:32 :: Часовой пояс: UTC ± 0