Когалым - город нефтяников
Год выпуска: 2016
Страна: Россия
Жанр: Документальный
Продолжительность: 00:27:19
Перевод: Не требуется
Описание: Название "Когалым" в переводе с языка коренного народа ханты означает "гиблое место". Тысячелетиями на севере Югры, где расположен город, царствовала суровая северная природа. И так продолжалось бы еще века, если бы однажды человек не нашел здесь нефть. Рядом с месторождениями был построен город, который всего за 30 лет так преобразился, что стал прекрасным оазисом среди бескрайних сибирских болот. Единственное, что остается неизменным: Когалым - город нефтяников. Из шестидесяти тысяч жителей с нефтяной отраслью связаны практически все. Сегодня Когалым называют жемчужиной Сибири. Это современный благоустроенный город, гуляя по которому удивляешься множеству спортивных и культурных объектов, скульптурам и фонтанам. А главное - здесь живут удивительные люди, многие из которых - потомки первопроходцев, создававших важнейшую для страны нефтедобывающую отрасль.
Доп. информация: IPTV Remux (запись потока без перекодирования)
NB! Если при воспроизведении файла на компьютере наблюдаются проблемы с картинкой, попробуйте в используемом плеере (например, Pot Player и тд) отключить параметр "DXVA".
Тип релиза: HDTV 1080i
Контейнер: MKV
Видео: AVC H.264, 1920x1080i (16:9), 25 fps, 11.1 Mbps, 0.214 bits/pixel
Аудио: MPEG Audio, 2 channels, 192 kbps, 48KHz
MediaInfo
GeneralComplete name : Когалым - город нефтяников.mkvFormat : MatroskaFormat version : Version 2File size : 2.20 GiBDuration : 27mn 19sOverall bit rate : 11.5 MbpsEncoded date : UTC 2016-12-21 20:56:17Writing application : mkvmerge v7.7.0 ('Six Voices') 32bit built on Feb 28 2015 23:23:00Writing library : libebml v1.3.1 + libmatroska v1.4.2
VideoID : 1Format : AVCFormat/Info : Advanced Video CodecFormat profile : [email protected] settings, CABAC : YesFormat settings, ReFrames : 4 framesFormat settings, GOP : M=4, N=28Codec ID : V_MPEG4/ISO/AVCDuration : 27mn 19sBit rate : 11.1 MbpsWidth : 1 920 pixelsHeight : 1 080 pixelsDisplay aspect ratio : 16:9Frame rate mode : ConstantFrame rate : 25.000 fpsColor space : YUVChroma subsampling : 4:2:0Bit depth : 8 bitsScan type : InterlacedScan order : Top Field FirstBits/(Pixel*Frame) : 0.214Stream size : 2.12 GiB (96%)Default : YesForced : NoColor primaries : BT.709Transfer characteristics : BT.709Matrix coefficients : BT.709
AudioID : 2Format : MPEG AudioFormat version : Version 1Format profile : Layer 2Codec ID : A_MPEG/L2Codec ID/Hint : MP2Duration : 27mn 19sBit rate mode : ConstantBit rate : 192 KbpsChannel(s) : 2 channelsSampling rate : 48.0 KHzCompression mode : LossyStream size : 37.5 MiB (2%)Language : RussianDefault : YesForced : No
Скриншоты

If you like the topic, please click share to help develop our site.

To download the file disable ad blocking, and reload the page.

disable adblock How to disable ad blocking?

Download by magnet link 2.2 GB Download Torrent

Login using:

Similar topics



   
Current time is: 23-Jul 01:34 :: All times are UTC + 3