Альпы с высоты птичьего полета часть 5 / Les Alpes vues du ciel
Год выпуска: 2011
Страна: Франция-Швейцария
Студия: MC4/ARTE G.E.I.E/RTS
Жанр: познавательный
Продолжительность: 00:52:19
Перевод: Профессиональный (двухголосый закадровый)
Доп. инфо о переводе: тпо рэд медиа
Русские субтитры: нет
Телеканал: HD Life
Режиссер: Жан Афанасьефф / Jean Afanassieff
Описание: Наше путешествие по Альпам начнётся от Бернского высокогорья до кантона Во с посещением самых знаменитых достопримечательностей таких как гора Маттерхорн, высокогорных бальнеологических курортов и великолепных лыжных трасс. Также побываем на машиностроительном заводе выпускающим самые надёжные в мире поезда для горной местности.
Сэмпл: https://yadi.sk/i/hhSq5nIa36tm6p
Тип релиза: HDTVRip 1080p
Контейнер: MKV
Видео: AVC, PAL, 1920x1080, 16x9, 4995Мбит/сек, 25fps
Аудио: Русский, AAC, 2Ch, 48Khz, 127kbps
MediaInfo
ОбщееУникальный идентификатор : 205274415535182943647885108092652057166 (0x9A6E6A141FF15E1A8CEE94851575724E)Полное имя : H:\АЛЬПЫ 5.mkvФормат : MatroskaВерсия формата : Version 4 / Version 2Размер файла : 1,87 ГбайтПродолжительность : 52 м. 19 с.Общий поток : 5123 Кбит/секДата кодирования : UTC 2017-01-04 13:50:20Программа кодирования : mkvmerge v8.2.0 ('World of Adventure') 64bitБиблиотека кодирования : libebml v1.3.1 + libmatroska v1.4.2
ВидеоИдентификатор : 1Формат : AVCФормат/Информация : Advanced Video CodecПрофиль формата : High@L4Параметр CABAC формата : ДаПараметр ReFrames формата : 4 кадраИдентификатор кодека : V_MPEG4/ISO/AVCПродолжительность : 52 м. 19 с.Битрейт : 4995 Кбит/секШирина : 1920 пикселейВысота : 1080 пикселейСоотношение сторон : 16:9Режим частоты кадров : ПостоянныйЧастота кадров : 25,000 кадров/секСтандарт вещания : ComponentЦветовое пространство : YUVСубдискретизация насыщенности : 4:2:0Битовая глубина : 8 битТип развёртки : ПрогрессивнаяБит/(Пиксели*Кадры) : 0.096Размер потока : 1,83 Гбайт (97%)Default : ДаForced : НетЦветовой диапазон : LimitedОсновные цвета : BT.709Характеристики трансфера : BT.709Коэффициенты матрицы : BT.709
АудиоИдентификатор : 2Формат : AACФормат/Информация : Advanced Audio CodecПрофиль формата : LCИдентификатор кодека : A_AACПродолжительность : 52 м. 18 с.Битрейт : 125 Кбит/секКаналы : 2 каналаРасположение каналов : Front: L RЧастота : 48,0 КГцЧастота кадров : 46,875 кадров/сек (1024 spf)Метод сжатия : С потерямиРазмер потока : 46,9 Мбайт (2%)Default : ДаForced : Нет
Скриншоты

To download the file disable ad blocking, and reload the page.

disable adblock How to disable ad blocking?

Download by magnet link 1.87 GB Download Torrent

Login using:

Similar topics



   
Current time is: 15-Oct 14:36 :: All times are UTC ± 0