«Непутевые заметки» с Дмитрием Крыловым
Год выпуска: 2016
Страна: Россия
Жанр: Документальное кино
Продолжительность: ~00:15:00
Режиссер: Дмитрий Крылов
Описание: Телевизионный путеводитель по странам и континентам.
Авторская программа Дмитрия Крылова "Непутевые заметки" появилась на Первом канале Центрального Телевидения в начале 1991 года. Первый 4-х серийный фильм назывался "Непутевые заметки или ИЗ ЛОНДОНА С ЛЮБОВЬЮ". На фоне официоза международной тележурналистики "Непутевые заметки" сразу же привлекли к себе внимание. Зрителям импонировал субъективный и непредвзятый взгляд на жизнь Запада, временами наивный, иногда ироничный. Автор вовсе не выдавал себя за знатока заграничной жизни. Поэтому при просмотре у зрителей возникала иллюзия, что это они сами открывают для себя закрытые стороны жизни ДРУГОГО мира.
В течение 5-ти "Непутевые заметки" выходили периодически по мере появления новых материалов. После фильма о Лондоне вышли фильмы о Западном Берлине, о Средиземноморских круизах и прибрежных городах и странах – Стамбуле, Афинах, Мальте, Венеции, Барселоне, Риме, Неаполе, Генуе, Ницце, Сицилии. Затем у автора начался "американский" период – 12-серийный фильм "Путешествие с Соней в поисках Америки" (Ю.Флорида, Нью-Йорк и Бостон). Особое внимание зрителей привлек фильм о Дании, в котором помимо авторского "взрослого" взгляда на страну был представлен еще и детский взгляд шестилетнего мальчика Мити, сына автора. Потом к этому приему автор обращался еще несколько раз, вместе с сыном рассказывая о поездке на греческие острова, а также в "Дисней Уолд" в Орландо и о Карибском круизе.
С начала 1996 года "Непутевые заметки" стали выходить на Первом канале регулярно. За время своего существования съемочная группа программы "Непутевые заметки" побывала в различных уголках нашей планеты, а в 2002 году она добралась и до Северного Полюса.
Качество: HDTV 1080i
Формат: MPEG-TS
Видео кодек: H.264
Аудио кодек: АС3
Видео: MPEG4 Video (H264) 1920x1080, 25fps, ~8500 Кбит/сек
Аудио: 384 Kbps : 6сн : 48,0 КГц
Все серии в раздаче имеют схожие технические характеристики.
Скриншоты МИ
Общее
Идентификатор : 1 (0x1)
Полное имя : E:\Непутёвые заметки - 1 часть 2016\Непутёвые заметки 2016-01-17_bySat.ts
Формат : MPEG-TS
Размер файла : 1,04 Гбайт
Продолжительность : 13 м.
Режим общего битрейта : Переменный
Общий поток : 10,8 Мбит/сек
Видео
Идентификатор : 305 (0x131)
Идентификатор меню : 1 (0x1)
Формат : AVC
Формат/Информация : Advanced Video Codec
Профиль формата : Main@L4.0
Параметр CABAC формата : Да
Параметр ReFrames формата : 4 кадра
Идентификатор кодека : 27
Продолжительность : 13 м.
Битрейт : 9855 Кбит/сек
Ширина : 1920 пикселей
Высота : 1080 пикселей
Соотношение сторон : 16:9
Частота кадров : 25,000 кадров/сек
Стандарт вещания : Component
Цветовое пространство : YUV
Субдискретизация насыщенности : 4:2:0
Битовая глубина : 8 бит
Тип развёртки : Чересстрочная
Порядок развёртки : Верхнее поле первое
Бит/(Пиксели*Кадры) : 0.190
Размер потока : 971 Мбайт (91%)
Основные цвета : BT.709
Характеристики трансфера : BT.709
Коэффициенты матрицы : BT.709
colour_range : Limited
Аудио
Идентификатор : 415 (0x19F)
Идентификатор меню : 1 (0x1)
Формат : AC-3
Формат/Информация : Audio Coding 3
Расширение режима : CM (complete main)
Параметр Endianness формата : Big
Идентификатор кодека : 6
Продолжительность : 13 м.
Вид битрейта : Постоянный
Битрейт : 384 Кбит/сек
Каналы : 6 каналов
Расположение каналов : Front: L C R, Side: L R, LFE
Частота : 48,0 КГц
Битовая глубина : 16 бит
Метод сжатия : С потерями
Размер потока : 37,9 Мбайт (4%)
Язык : Russian
Текст
Идентификатор : 505 (0x1F9)-888
Идентификатор меню : 1 (0x1)
Формат : Teletext Subtitle
Язык : Russian
Меню
Идентификатор : 256 (0x100)
Идентификатор меню : 1 (0x1)
Продолжительность : 13 м.
Список : 305 (0x131) (AVC) / 415 (0x19F) (AC-3, Russian) / 505 (0x1F9) ()
Язык : / Russian
содержание
Непутёвые заметки 2016-02-14_bySat - Голландия (Нидерланды)
Непутёвые заметки 2016-02-22_bySat - Кострома́
Непутёвые заметки 2016-02-28_bySat - Македо́ния
Непутёвые заметки 2016-03-06_bySat - КЁКЕНХОФ - королевский парк цветов. Нидерланды.
Непутёвые заметки 2016-03-13_bySat - Гран-Канария. Испания
Непутёвые заметки 2016-03-27_bySat - Камча́тка
Непутёвые заметки 2016-04-06_bySat - Гран-Канария.
Непутёвые заметки 2016-04-10_bySat - Ла́твия
Непутёвые заметки 2016-04-17_bySat - Дали, Сальвадор
Непутёвые заметки 2016-04-24_bySat - Коста-Рика 1ч.
Непутёвые заметки 2016-05-15_bySat - Коста-Рика 2ч.
Непутёвые заметки 2016-05-22_bySat - Камчатка, Ингушетия.
Непутёвые заметки 2016-05-29_bySat - Новая Зеландия
Непутёвые заметки 2016-06-05_bad_bySat - Норвегия = Внимание! Выпуск без окончания, не более 25сек. (малый собирал черешню закрыв собою "ухо")
Непутёвые заметки 2016-06-19_bad_bySat - Голландия = Внимание! В середине выпуска "не хватает" ~25сек
Непутёвые заметки 2016-06-26_bySat - Калининградская область
Непутёвые заметки 2016-07-03_bySat - Сочи
Непутёвые заметки 2016-08-28_bySat - Венгрия
Непутёвые заметки 2016-09-04_bySat - Эдинбург
Непутёвые заметки 2016-09-11_bySat - Шотландия
Непутёвые заметки 2016-09-18_bySat - Монголия
Непутёвые заметки 2016-09-25_bySat - Монголия
Непутёвые заметки 2016-10-02_bySat - Калининградская область
Непутёвые заметки 2016-10-09_bySat - Шотландия
Непутёвые заметки 2016-10-16_bySat - Италия
Непутёвые заметки 2016-10-30_bySat - Перу
Непутёвые заметки 2016-11-06_bySat - Латинская Америка, Перу
Непутёвые заметки 2016-11-13_bySat - Куба
Непутёвые заметки 2016-11-20_bySat - Перу
Непутёвые заметки 2016-11-27_bySat - Лапландия, Рига
Непутёвые заметки 2016-12-04_bySat - Амазонка
Непутёвые заметки 2016-12-11_bySat - Япония 1ч.
Непутёвые заметки 2016-12-18_bySat - Япония 2ч.
Непутёвые заметки 2016-12-26_bySat - Алтайский край
!

Для скачивания файла отключите блокировку рекламы и перезагрузите страницу.

disable adblock Как отключить блокировку рекламы?

Скачать по магнет ссылке 40,49 GB 

Войти с помощью:

Похожие раздачи

Внимание! Контент 18+ если вы младше данного возраста, НЕ переходите по ссылке!!!


   
Текущее время: 17-Авг 11:28 :: Часовой пояс: UTC ± 0