Мир Наизнанку - 8: Непал ~ Світ Навиворіт - 8: Непал-- Год выпуска: 2016
Страна: Украина
Производство: 1+1 Production
Жанр: Трэвел-Шоу, Реалити-Шоу, Документальный, Путешествие
Продолжительность выпуска: ~00:55:00
Перевод: Не требуется (Русский)
Субтитры: нет-Автор и ведущий:
  • Дмитрий Комаров-Описание:
  • Автор "Мира наизнанку" путешествует странами, в которых не принято ездить с туристическими турами. В программе вы увидите редкие традиции и уникальные ритуалы, невероятные знакомства с аборигенами. Дмитрий Комаров - украинский журналист и фотограф, специальный корреспондент газеты "Известия в Украине". Автор и участник масштабных экспедиций предпочитает путешествиям одиночестве - покупает билет в один конец и надолго едет в незнакомую страну, чтобы понять ее изнутри, стать ее жителем, показать ее изнанку. В багаже Комарова сегодня около 20 стран: Кения, Танзания, Непал, Бирма, Таиланд, Азербайджан, Казахстан, Республика Кабардино-Балкария и другие. Путешествие Комарова по Индии была внесена в "Книгу рекордов Украины" как максимальный пробег "своим ходом" по этой стране за минимальный срок - 20 000 километров за 90 дней. Дмитрий так же сходил на Килиманджаро, Эльбрус и Монблан.- -Тип релиза: HDTVRip 1080p
    Контейнер: MKV
    Видео: AVC (H.264), 1920x1080 (16:9), 25.00fps, ~ 6 527 Кбит/сек
    Аудио: AAC, 44.1 KHz, stereo (2 channels), 192 Кбит/сек
    Выпуски
01. Приключения в диких джунглях Непала.
02. Страшная авиакатастрофа в Гималаях.
03. Жизнь среди руин и хаоса.
04. Знакомство с маленьким Буддой.
05. Экспедиция к Эвересту. Часть 1.
06. Экспедиция к Эвересту. Часть 2.
07. Экспедиция к Эвересту. Часть 3.
08. Экспедиция к Эвересту. Часть 4.
09. Экспедиция к Эвересту. Часть 5.
10. Экспедиция к Эвересту. Часть 6.
11. Праздник в Катманду и дикие джунгли на границе с Индией.
12. Встреча самых известных звезд Непала и знакомство с живой богиней.
13. Кремация чиновника, храм Камасутры, король Мустанга и Тибетский Новый Год.
14. Запретное королевство Мустанг.
15. Восхождение на Айленд-пик и закадровая жизнь проекта.
Сэмпл Медиаинфо
General
Unique ID : 238028492392375118649203719012346751290 (0xB3129EBFA1F689D9BDD8A989D62FE93A)
Format : Matroska
Format version : Version 2
File size : 2.44 GiB
Duration : 50mn 56s
Overall bit rate mode : Variable
Overall bit rate : 6 855 Kbps
Encoded date : UTC 2016-10-21 13:51:47
Writing application : mkvmerge v7.8.0 ('River Man') 32bit built on Apr 3 2015 12:11:22
Writing library : libebml v1.3.1 + libmatroska v1.4.2
Video
ID : 1
Format : AVC
Format/Info : Advanced Video Codec
Format profile : High@L4.1
Format settings, CABAC : Yes
Format settings, ReFrames : 6 frames
Codec ID : V_MPEG4/ISO/AVC
Duration : 50mn 56s
Bit rate mode : Variable
Bit rate : 6 527 Kbps
Maximum bit rate : 40.0 Mbps
Width : 1 920 pixels
Height : 1 080 pixels
Display aspect ratio : 16:9
Frame rate mode : Constant
Frame rate : 25.000 fps
Color space : YUV
Chroma subsampling : 4:2:0
Bit depth : 8 bits
Scan type : Progressive
Bits/(Pixel*Frame) : 0.126
Stream size : 2.32 GiB (95%)
Writing library : x264 core 142 r2491 24e4fed
Encoding settings : cabac=1 / ref=6 / deblock=1:0:0 / analyse=0x3:0x113 / me=hex / subme=7 / psy=1 / psy_rd=1.00:0.00 / mixed_ref=1 / me_range=16 / chroma_me=1 / trellis=1 / 8x8dct=1 / cqm=0 / deadzone=21,11 / fast_pskip=1 / chroma_qp_offset=-2 / threads=12 / lookahead_threads=2 / sliced_threads=0 / nr=0 / decimate=1 / interlaced=0 / bluray_compat=0 / constrained_intra=0 / bframes=3 / b_pyramid=2 / b_adapt=1 / b_bias=0 / direct=1 / weightb=1 / open_gop=0 / weightp=2 / keyint=100 / keyint_min=10 / scenecut=40 / intra_refresh=0 / rc_lookahead=40 / rc=crf / mbtree=1 / crf=22.0 / qcomp=0.60 / qpmin=0 / qpmax=69 / qpstep=4 / vbv_maxrate=10000 / vbv_bufsize=20000 / crf_max=0.0 / nal_hrd=none / filler=0 / ip_ratio=1.41 / aq=1:1.0
Default : Yes
Forced : No
Audio
ID : 2
Format : AC-3
Format/Info : Audio Coding 3
Mode extension : CM (complete main)
Format settings, Endianness : Big
Codec ID : A_AC3
Duration : 50mn 56s
Bit rate mode : Constant
Bit rate : 192 Kbps
Channel(s) : 2 channels
Channel positions : Front: L R
Sampling rate : 44.1 KHz
Frame rate : 28.711 fps (1536 spf)
Compression mode : Lossy
Stream size : 70.0 MiB (3%)
Default : Yes
Forced : No
Скриншоты

To download the file disable ad blocking, and reload the page.

disable adblock How to disable ad blocking?

Download by magnet link 21.54 GB Download Torrent

Login using:

Similar topics



   
Current time is: 17-Oct 14:40 :: All times are UTC ± 0