Мнимый больной, или Путешествия ипохондрика. Лечить по-русски, по-тайски, по-филиппински
Год выпуска: 2016
Страна: Россия
Студия: Моя планета
Жанр: Документальный
Продолжительность: ~ 00:26:00 выпуск
Перевод: Не требуется
Русские субтитры: нет
Описание: Ведущий программы отправится в путешествие по всему миру, чтобы на своем опыте опробовать самые смелые и неожиданные методы лечения. Он встретится лицом к лицу со знахарями всего мира, чтобы узнать, кто из них - настоящий врач, а кто многие годы манипулирует пациентами.
Андрей Понкратов верит, что народная медицина - самая надежная, проверенная веками, поэтому он последовательно подвергает себя самым странным процедурам. От некоторых из них он действительно чувствует эффект, пусть и не всегда положительный.
Тип релиза: WEB-DL 1080p
Контейнер: MKV
Видео: H264; 1920x1080 (16:9); 25.000 fps; ~2 962 Kbps
Аудио: AAC, 48.0 KHz, 2 ch, 126 Кбит/сек
MediaInfo
GeneralUnique ID : 176016111896893357568629969979559964447 (0x846B7855D4DA826F8C7AB02F0AD4EF1F)Complete name : E:\Планета HD на РАЗДАЧУ\Мнимый больной, или Путешествия ипохондрика\М.Б.или.П.И. Лечить по-тайски 1 ч._WEB-DL_1080p.mkvFormat : MatroskaFormat version : Version 4 / Version 2File size : 588 MiBDuration : 26 min 37 sOverall bit rate : 3 090 kb/sEncoded date : UTC 2016-12-15 14:36:37Writing application : mkvmerge v9.6.0 ('Slave To Your Mind') 64bitWriting library : libebml v1.3.4 + libmatroska v1.4.5
VideoID : 1Format : AVCFormat/Info : Advanced Video CodecFormat profile : High@L4Format settings, CABAC : YesFormat settings, ReFrames : 3 framesCodec ID : V_MPEG4/ISO/AVCDuration : 26 min 37 sBit rate : 2 962 kb/sWidth : 1 920 pixelsHeight : 1 080 pixelsDisplay aspect ratio : 16:9Frame rate mode : ConstantFrame rate : 25.000 FPSColor space : YUVChroma subsampling : 4:2:0Bit depth : 8 bitsScan type : ProgressiveBits/(Pixel*Frame) : 0.057Stream size : 564 MiB (96%)Default : YesForced : NoColor range : LimitedColor primaries : BT.709Transfer characteristics : BT.709Matrix coefficients : BT.709
AudioID : 2Format : AACFormat/Info : Advanced Audio CodecFormat profile : LCCodec ID : A_AACDuration : 26 min 37 sBit rate : 126 kb/sChannel(s) : 2 channelsChannel positions : Front: L RSampling rate : 44.1 kHzFrame rate : 43.066 FPS (1024 spf)Compression mode : LossyStream size : 23.9 MiB (4%)Language : RussianDefault : YesForced : No
Скриншоты

To download the file disable ad blocking, and reload the page.

disable adblock How to disable ad blocking?

Download by magnet link 2.95 GB Download Torrent

Login using:

Загрузка...

Similar topics



   
Current time is: 15-Dec 16:18 :: All times are UTC + 3