Человек мира с Андреем Понкратовым. Братья Словенцы
Год выпуска: 2016
Страна: Россия
Студия: Моя планета
Жанр: Документальный
Продолжительность: ~ 00:52:09
Перевод: Не требуется
Русские субтитры: нет
Описание: Компактная страна - рай для туриста. Всё под боком. Всё рядышком. Словения как раз из таких. Но о чем еще, кроме скромных размеров, мы знаем? У нас нет даже устоявшихся предрассудков о Словении, которые можно было бы подтвердить или опровергнуть. Что за люди здесь живут? Похожи ли на нас? Андрей Понкратов отправляется на разведку, чтобы все разузнать!
Тип релиза: WEB-DL 1080p
Контейнер: MKV
Видео: H264; 1920x1080 (16:9); 25.000 fps; ~2 996 Kbps
Аудио: AAC, 48.0 KHz, 2 ch, 126 Кбит/сек
MediaInfo
GeneralUnique ID : 182192957009385031632471529077455008248 (0x8911164FDC6E8C2FA8F5C0C2583931F8)Complete name : I:\Планета HD 1080i\Человек мира с Андреем Понкратовым. Братья словенцы _WEB-DL_1080p.mkvFormat : MatroskaFormat version : Version 4 / Version 2File size : 1.14 GiBDuration : 52 min 9 sOverall bit rate : 3 124 kb/sEncoded date : UTC 2016-12-13 20:29:55Writing application : mkvmerge v9.6.0 ('Slave To Your Mind') 64bitWriting library : libebml v1.3.4 + libmatroska v1.4.5
VideoID : 1Format : AVCFormat/Info : Advanced Video CodecFormat profile : [email protected] settings, CABAC : YesFormat settings, ReFrames : 3 framesCodec ID : V_MPEG4/ISO/AVCDuration : 52 min 9 sBit rate : 2 996 kb/sWidth : 1 920 pixelsHeight : 1 080 pixelsDisplay aspect ratio : 16:9Frame rate mode : ConstantFrame rate : 25.000 FPSColor space : YUVChroma subsampling : 4:2:0Bit depth : 8 bitsScan type : ProgressiveBits/(Pixel*Frame) : 0.058Stream size : 1.09 GiB (96%)Default : YesForced : NoColor range : LimitedColor primaries : BT.709Transfer characteristics : BT.709Matrix coefficients : BT.709
AudioID : 2Format : AACFormat/Info : Advanced Audio CodecFormat profile : LCCodec ID : A_AACDuration : 52 min 9 sBit rate : 126 kb/sChannel(s) : 2 channelsChannel positions : Front: L RSampling rate : 44.1 kHzFrame rate : 43.066 FPS (1024 spf)Compression mode : LossyStream size : 46.8 MiB (4%)Default : YesForced : No
Скриншоты

If you like the topic, please click share to help develop our site.

To download the file disable ad blocking, and reload the page.

disable adblock How to disable ad blocking?

Download by magnet link 1.14 GB Download Torrent

Login using:

Similar topics



   
Current time is: 23-Jul 01:53 :: All times are UTC + 3