RT: Гранд Макет Россия
Год выпуска: 2014
Страна: Россия
Жанр: Документальный
Продолжительность: 00:26:02
Перевод: Не требуется
Описание: День здесь длится 15 минут, а расстояние от Санкт-Петербурга до Владивостока железнодорожный состав проезжает за 20 минут. Это - «Гранд Макет Россия». Страна в миниатюре с наиболее характерными чертами и объектами. В фильме создатели масштабного проекта рассказывают о процессе его воплощения в жизнь, раскрывают секреты изготовления объектов и показывают «жизнь маленькой России» в действии.
Доп. информация: IPTV Remux (запись потока без перекодирования)
Тип релиза: HDTV 1080i
Контейнер: MKV
Видео: AVC H.264, 1920x1080i (16:9), 25 fps, 6736 kbps , 0.130 bits/pixel
Аудио: MPEG Audio, 2 channels, 192 kbps, 48KHz
MediaInfo
GeneralUnique ID : 234662081387661210613287989451922955426 (0xB08A45DF1CBE08E1B5CE429F93A15CA2)Complete name : Гранд Макет Россия.mkvFormat : MatroskaFormat version : Version 2File size : 1.29 GiBDuration : 26mn 2sOverall bit rate : 7 068 KbpsEncoded date : UTC 2016-09-01 15:40:23Writing application : mkvmerge v7.7.0 ('Six Voices') 32bit built on Feb 28 2015 23:23:00Writing library : libebml v1.3.1 + libmatroska v1.4.2
VideoID : 1Format : AVCFormat/Info : Advanced Video CodecFormat profile : High@L4.0Format settings, CABAC : YesFormat settings, ReFrames : 4 framesCodec ID : V_MPEG4/ISO/AVCDuration : 26mn 2sBit rate : 6 736 KbpsWidth : 1 920 pixelsHeight : 1 080 pixelsDisplay aspect ratio : 16:9Frame rate mode : ConstantFrame rate : 25.000 fpsStandard : ComponentColor space : YUVChroma subsampling : 4:2:0Bit depth : 8 bitsScan type : InterlacedScan order : Top Field FirstBits/(Pixel*Frame) : 0.130Stream size : 1.23 GiB (95%)Default : YesForced : NoColor primaries : BT.709Transfer characteristics : BT.709Matrix coefficients : BT.709
AudioID : 2Format : MPEG AudioFormat version : Version 1Format profile : Layer 2Codec ID : A_MPEG/L2Codec ID/Hint : MP2Duration : 26mn 2sBit rate mode : ConstantBit rate : 192 KbpsChannel(s) : 2 channelsSampling rate : 48.0 KHzCompression mode : LossyStream size : 35.8 MiB (3%)Language : RussianDefault : YesForced : No
Скриншоты

To download the file disable ad blocking, and reload the page.

disable adblock How to disable ad blocking?

Download by magnet link 1.29 GB Download Torrent

Login using:

Similar topics



   
Current time is: 17-Oct 14:43 :: All times are UTC ± 0