Кавказ / Der Kaukasus
Год выпуска: 2014
Страна: Германия, Россия, Австрия
Студия: Altayfilm, 1 Канал, NDR Naturfilm, Studio Hamburg DocLights, Terra Mater Factual Studios, Westdeutscher Rundfunk (WDR)
Жанр: Документальный
Продолжительность: 00:44:23
Перевод: Профессиональный (дублированный)
Доп. инфо о переводе: SDI-Media
Русские субтитры: нет
Режиссер: Генри М. Микс / Henry M. Mix
Описание: 01. Большой Кавказ / Дикий Кавказ / The Greater Caucasus / Der große Kaukasus - Russlands Dach der Welt
Горные пейзажи Кавказа являются магической границей между Европой и Азией. Этот документальный фильм покажет впечатляющие природные чудеса между Черным и Каспийским морем. Дикий горный пейзаж с экстремальным климатом сформировал уникальную флору и фауну. Фильм иллюстрирует Кавказ как один из 25 самых важных мировых центров биоразнообразия. Только здесь можно встретить кавказского зубра, улара и тура.
Доп. информация: Релиз
и
Автор рипа - DeTorquemada
Сведение русской, украинской и английской дорожек - nyctalus
Сэмпл: http://multi-up.com/1122627
Тип релиза: BDRip 1080p
Контейнер: MKV
Видео: 1920x1080 at 25.000 fps, MPEG-4 AVC, ~11.9 Mbps avg
Аудио: Русский: 48 kHz, AC3, 2/0 (L,R) ch, ~192.00 kbps avg |Дубляж, SDI Media, текст читает Роман Антанович|
Аудио 2: Українська: 48 kHz, AC3, 2/0 (L,R) ch, ~192.00 kbps avg |Дубляж, канал Мега|
Аудио 3: English: 48 kHz, AC3, 2/0 (L,R) ch, ~192.00 kbps avg |Дубляж|
Аудио 4: German: 48 kHz, AC3, 2/0 (L,R) ch, ~192.00 kbps avg
MediaInfo
ОбщееУникальный идентификатор : 194741167765591167825921178671075328560 (0x9281C8DE32A1A144BE4264A34AC08230)Полное имя : Der.grosse.Kaukasus.2014.1080p.BluRay.Rus.Ukr.Eng.Ger_HDClub.mkvФормат : MatroskaВерсия формата : Version 4 / Version 2Размер файла : 4,02 ГбайтПродолжительность : 44 м.Общий поток : 13,0 Мбит/секНазвание фильма : Create by DeTorquemada for HDCLUBДата кодирования : UTC 2016-10-13 18:51:55Программа кодирования : mkvmerge v9.0.1 ('Obstacles') 32bitБиблиотека кодирования : libebml v1.3.3 + libmatroska v1.4.4Attachements : Kaukasus.jpgDURATION : 00:44:23.264000000NUMBER_OF_FRAMES : 83227NUMBER_OF_BYTES : 63918336_STATISTICS_WRITING_APP : mkvmerge v9.0.1 ('Obstacles') 32bit_STATISTICS_WRITING_DATE_UTC : 2016-10-13 18:51:55_STATISTICS_TAGS : BPS DURATION NUMBER_OF_FRAMES NUMBER_OF_BYTES
ВидеоИдентификатор : 1Формат : AVCФормат/Информация : Advanced Video CodecПрофиль формата : High@L4.1Параметр CABAC формата : ДаПараметр ReFrames формата : 4 кадраИдентификатор кодека : V_MPEG4/ISO/AVCПродолжительность : 44 м.Битрейт : 11,9 Мбит/секШирина : 1920 пикселейВысота : 1080 пикселейСоотношение сторон : 16:9Режим частоты кадров : ПостоянныйЧастота кадров : 25,000 кадров/секЦветовое пространство : YUVСубдискретизация насыщенности : 4:2:0Битовая глубина : 8 битТип развёртки : ПрогрессивнаяБит/(Пиксели*Кадры) : 0.230Размер потока : 3,70 Гбайт (92%)Заголовок : Der große Kaukasus - Russlands Dach der Welt / Большой Кавказ - Высочайшая вершина России (2016) - Realise for HDCLUBБиблиотека кодирования : x264 core 148 r2721 72d53abНастройки программы : cabac=1 / ref=4 / deblock=1:-3:-3 / analyse=0x3:0x113 / me=umh / subme=10 / psy=1 / psy_rd=1.00:0.00 / mixed_ref=1 / me_range=32 / chroma_me=1 / trellis=2 / 8x8dct=1 / cqm=0 / deadzone=21,11 / fast_pskip=1 / chroma_qp_offset=-2 / threads=6 / lookahead_threads=1 / sliced_threads=0 / nr=0 / decimate=1 / interlaced=0 / bluray_compat=0 / constrained_intra=0 / bframes=8 / b_pyramid=2 / b_adapt=2 / b_bias=0 / direct=1 / weightb=1 / open_gop=0 / weightp=2 / keyint=250 / keyint_min=25 / scenecut=40 / intra_refresh=0 / rc_lookahead=40 / rc=crf / mbtree=0 / crf=18.0 / qcomp=0.60 / qpmin=0 / qpmax=69 / qpstep=4 / vbv_maxrate=50000 / vbv_bufsize=62500 / crf_max=0.0 / nal_hrd=none / filler=0 / ip_ratio=1.40 / pb_ratio=1.30 / aq=1:0.80Язык : GermanDefault : ДаForced : НетЦветовой диапазон : LimitedКоэффициенты матрицы : BT.709DURATION : 00:44:23.280000000NUMBER_OF_FRAMES : 66582NUMBER_OF_BYTES : 4061269861_STATISTICS_WRITING_APP : mkvmerge v9.0.1 ('Obstacles') 32bit_STATISTICS_WRITING_DATE_UTC : 2016-10-13 18:51:55_STATISTICS_TAGS : BPS DURATION NUMBER_OF_FRAMES NUMBER_OF_BYTES
Аудио #1Идентификатор : 2Формат : AC-3Формат/Информация : Audio Coding 3Расширение режима : CM (complete main)Параметр Endianness формата : BigИдентификатор кодека : A_AC3Продолжительность : 44 м.Вид битрейта : ПостоянныйБитрейт : 192 Кбит/секКаналы : 2 каналаРасположение каналов : Front: L RЧастота : 48,0 КГцМетод сжатия : С потерямиРазмер потока : 61,0 Мбайт (1%)Заголовок : 48kHz, АС3, 2.0 (L,R) ch, ~192 kbps - Роман АнтоновичЯзык : RussianDefault : ДаForced : Да
Аудио #2Идентификатор : 3Формат : AC-3Формат/Информация : Audio Coding 3Расширение режима : CM (complete main)Параметр Endianness формата : BigИдентификатор кодека : A_AC3Продолжительность : 44 м.Вид битрейта : ПостоянныйБитрейт : 192 Кбит/секКаналы : 2 каналаРасположение каналов : Front: L RЧастота : 48,0 КГцМетод сжатия : С потерямиРазмер потока : 61,0 Мбайт (1%)Заголовок : 48 kHz, AC2, 2.0 (L,R) ch ~ 192 kbps - канал МегаЯзык : UkrainianDefault : НетForced : Нет
Аудио #3Идентификатор : 4Формат : AC-3Формат/Информация : Audio Coding 3Расширение режима : CM (complete main)Параметр Endianness формата : BigИдентификатор кодека : A_AC3Продолжительность : 44 м.Вид битрейта : ПостоянныйБитрейт : 192 Кбит/секКаналы : 2 каналаРасположение каналов : Front: L RЧастота : 48,0 КГцМетод сжатия : С потерямиРазмер потока : 61,0 Мбайт (1%)Заголовок : 48 kHz, AC2, 2.0 (L,R) ch ~ 192 kbpsЯзык : EnglishDefault : НетForced : Нет
Аудио #4Идентификатор : 5Формат : AC-3Формат/Информация : Audio Coding 3Расширение режима : CM (complete main)Параметр Endianness формата : BigИдентификатор кодека : A_AC3Продолжительность : 44 м.Вид битрейта : ПостоянныйБитрейт : 192 Кбит/секКаналы : 2 каналаРасположение каналов : Front: L RЧастота : 48,0 КГцМетод сжатия : С потерямиРазмер потока : 61,0 Мбайт (1%)Заголовок : 48kHz, АС3, 2.0 (L,R) ch, ~192 kbps - Sprecher: Hans Henrik WöhierЯзык : GermanDefault : НетForced : Нет
Меню00:00:00.000 : en:00:00:48.360 : en:00:12:52.800 : en:00:31:20.720 : en:00:44:02.920 : en:00:44:23.280 : en:
Скриншоты

Для скачивания файла отключите блокировку рекламы и перезагрузите страницу.

disable adblock Как отключить блокировку рекламы?

Скачать по магнет ссылке 4,02 GB 

Войти с помощью:

Похожие раздачи

Внимание! Контент 18+ если вы младше данного возраста, НЕ переходите по ссылке!!!


   
Текущее время: 14-Авг 22:55 :: Часовой пояс: UTC ± 0