Кавказ / Der Kaukasus
Год выпуска: 2014
Страна: Германия, Россия, Австрия
Студия: Altayfilm, 1 Канал, NDR Naturfilm, Studio Hamburg DocLights, Terra Mater Factual Studios, Westdeutscher Rundfunk (WDR)
Жанр: Документальный
Продолжительность: 00:44:23
Перевод: Профессиональный (дублированный)
Доп. инфо о переводе: SDI-Media
Русские субтитры: нет
Режиссер: Генри М. Микс / Henry M. Mix
Описание: 01. Большой Кавказ / Дикий Кавказ / The Greater Caucasus / Der große Kaukasus - Russlands Dach der Welt
Горные пейзажи Кавказа являются магической границей между Европой и Азией. Этот документальный фильм покажет впечатляющие природные чудеса между Черным и Каспийским морем. Дикий горный пейзаж с экстремальным климатом сформировал уникальную флору и фауну. Фильм иллюстрирует Кавказ как один из 25 самых важных мировых центров биоразнообразия. Только здесь можно встретить кавказского зубра, улара и тура.
Доп. информация:
и
Автор рипа - DeTorquemada
Сведение русской, украинской и английской дорожек - nyctalus
Сэмпл: http://multi-up.com/1122471
Тип релиза: BDRip 720p
Контейнер: MKV
Видео: 1280x720 at 25.000 fps, MPEG-4 AVC, ~4840 kbps avg
Аудио: Русский: 48 kHz, AC3, 2/0 (L,R) ch, ~192.00 kbps avg |Дубляж, SDI Media, текст читает Роман Антанович|
Аудио 2: Українська: 48 kHz, AC3, 2/0 (L,R) ch, ~192.00 kbps avg |Дубляж, канал Мега|
Аудио 3: English: 48 kHz, AC3, 2/0 (L,R) ch, ~192.00 kbps avg |Дубляж|
Аудио 4: German: 48 kHz, AC3, 2/0 (L,R) ch, ~192.00 kbps avg
x264
x264 [info]: frame I:485 Avg QP:18.19 size:130910
x264 [info]: frame P:13784 Avg QP:19.51 size: 49476
x264 [info]: frame B:52313 Avg QP:22.09 size: 17256
x264 [info]: consecutive B-frames: 1.5% 2.6% 5.3% 23.3% 16.0% 32.0% 9.4% 7.4% 2.6%
MediaInfo
ОбщееУникальный идентификатор : 194686087423327436933109555110155499109 (0x92772D328A0C495FAED40B3EC719B665)Полное имя : Der.grosse.Kaukasus.2014.720p.BluRay.Rus.Ukr.Eng.Ger_HDClub.mkvФормат : MatroskaВерсия формата : Version 4 / Version 2Размер файла : 1,77 ГбайтПродолжительность : 44 м.Общий поток : 5722 Кбит/секНазвание фильма : Create by DeTorquemada for HDCLUBДата кодирования : UTC 2016-10-11 18:34:41Программа кодирования : mkvmerge v9.0.1 ('Obstacles') 32bitБиблиотека кодирования : libebml v1.3.3 + libmatroska v1.4.4Attachements : Kaukasus.jpgDURATION : 00:44:23.264000000NUMBER_OF_FRAMES : 83227NUMBER_OF_BYTES : 63918336_STATISTICS_WRITING_APP : mkvmerge v9.0.1 ('Obstacles') 32bit_STATISTICS_WRITING_DATE_UTC : 2016-10-11 18:34:41_STATISTICS_TAGS : BPS DURATION NUMBER_OF_FRAMES NUMBER_OF_BYTES
ВидеоИдентификатор : 1Формат : AVCФормат/Информация : Advanced Video CodecПрофиль формата : High@L4.1Параметр CABAC формата : ДаПараметр ReFrames формата : 7 кадровИдентификатор кодека : V_MPEG4/ISO/AVCПродолжительность : 44 м.Битрейт : 4840 Кбит/секШирина : 1280 пикселейВысота : 720 пикселейСоотношение сторон : 16:9Режим частоты кадров : ПостоянныйЧастота кадров : 25,000 кадров/секЦветовое пространство : YUVСубдискретизация насыщенности : 4:2:0Битовая глубина : 8 битТип развёртки : ПрогрессивнаяБит/(Пиксели*Кадры) : 0.210Размер потока : 1,50 Гбайт (85%)Заголовок : Der große Kaukasus - Russlands Dach der Welt / Большой Кавказ - Высочайшая вершина России (2016) - Realise for HDCLUBБиблиотека кодирования : x264 core 148 r2721 72d53abНастройки программы : cabac=1 / ref=7 / deblock=1:-3:-3 / analyse=0x3:0x113 / me=umh / subme=10 / psy=1 / psy_rd=1.00:0.00 / mixed_ref=1 / me_range=32 / chroma_me=1 / trellis=2 / 8x8dct=1 / cqm=0 / deadzone=21,11 / fast_pskip=1 / chroma_qp_offset=-2 / threads=6 / lookahead_threads=1 / sliced_threads=0 / nr=0 / decimate=1 / interlaced=0 / bluray_compat=0 / constrained_intra=0 / bframes=8 / b_pyramid=2 / b_adapt=2 / b_bias=0 / direct=1 / weightb=1 / open_gop=0 / weightp=2 / keyint=250 / keyint_min=25 / scenecut=40 / intra_refresh=0 / rc_lookahead=40 / rc=crf / mbtree=0 / crf=18.0 / qcomp=0.60 / qpmin=0 / qpmax=69 / qpstep=4 / vbv_maxrate=50000 / vbv_bufsize=62500 / crf_max=0.0 / nal_hrd=none / filler=0 / ip_ratio=1.40 / pb_ratio=1.30 / aq=1:0.80Язык : GermanDefault : ДаForced : НетЦветовой диапазон : LimitedКоэффициенты матрицы : BT.709DURATION : 00:44:23.280000000NUMBER_OF_FRAMES : 66582NUMBER_OF_BYTES : 1648204150_STATISTICS_WRITING_APP : mkvmerge v9.0.1 ('Obstacles') 32bit_STATISTICS_WRITING_DATE_UTC : 2016-10-11 18:34:41_STATISTICS_TAGS : BPS DURATION NUMBER_OF_FRAMES NUMBER_OF_BYTES
Аудио #1Идентификатор : 2Формат : AC-3Формат/Информация : Audio Coding 3Расширение режима : CM (complete main)Параметр Endianness формата : BigИдентификатор кодека : A_AC3Продолжительность : 44 м.Вид битрейта : ПостоянныйБитрейт : 192 Кбит/секКаналы : 2 каналаРасположение каналов : Front: L RЧастота : 48,0 КГцМетод сжатия : С потерямиРазмер потока : 61,0 Мбайт (3%)Заголовок : Большой Кавказ by nyctalusЯзык : RussianDefault : ДаForced : Да
Аудио #2Идентификатор : 3Формат : AC-3Формат/Информация : Audio Coding 3Расширение режима : CM (complete main)Параметр Endianness формата : BigИдентификатор кодека : A_AC3Продолжительность : 44 м.Вид битрейта : ПостоянныйБитрейт : 192 Кбит/секКаналы : 2 каналаРасположение каналов : Front: L RЧастота : 48,0 КГцМетод сжатия : С потерямиРазмер потока : 61,0 Мбайт (3%)Заголовок : Дикий Кавказ by nyctalusЯзык : UkrainianDefault : НетForced : Нет
Аудио #3Идентификатор : 4Формат : AC-3Формат/Информация : Audio Coding 3Расширение режима : CM (complete main)Параметр Endianness формата : BigИдентификатор кодека : A_AC3Продолжительность : 44 м.Вид битрейта : ПостоянныйБитрейт : 192 Кбит/секКаналы : 2 каналаРасположение каналов : Front: L RЧастота : 48,0 КГцМетод сжатия : С потерямиРазмер потока : 61,0 Мбайт (3%)Заголовок : The Greater Caucasus by nyctalusЯзык : EnglishDefault : НетForced : Нет
Аудио #4Идентификатор : 5Формат : AC-3Формат/Информация : Audio Coding 3Расширение режима : CM (complete main)Параметр Endianness формата : BigИдентификатор кодека : A_AC3Продолжительность : 44 м.Вид битрейта : ПостоянныйБитрейт : 192 Кбит/секКаналы : 2 каналаРасположение каналов : Front: L RЧастота : 48,0 КГцМетод сжатия : С потерямиРазмер потока : 61,0 Мбайт (3%)Заголовок : 48kHz, АС3, 2.0 (L,R) ch, ~192 kbps - Sprecher: Hans Henrik WöhierЯзык : GermanDefault : НетForced : Нет
Меню00:00:00.000 : en:00:00:48.360 : en:00:12:52.800 : en:00:31:20.720 : en:00:44:02.920 : en:00:44:23.280 : en:
Скриншоты

Для скачивания файла отключите блокировку рекламы и перезагрузите страницу.

disable adblock Как отключить блокировку рекламы?

Скачать по магнет ссылке 1,77 GB 

Войти с помощью:

Похожие раздачи

Внимание! Контент 18+ если вы младше данного возраста, НЕ переходите по ссылке!!!


   
Текущее время: 16-Авг 08:31 :: Часовой пояс: UTC ± 0