Альпы с высоты птичьего полета часть 4 / Les Alpes vues du ciel
Год выпуска: 2011
Страна: Франция
Студия: MC4/ARTE G.E.I.E
Жанр: познавательный
Продолжительность: 00:52:54
Перевод: Профессиональный (двухголосый закадровый)
Доп. инфо о переводе: тпо рэд медиа
Телеканал: HD Life
Режиссер: Жан Афанасьефф / Jean Afanassieff
Описание: Путешествие начнётся из верхних Альп от коммуны Сен_Веран до города Барсолонет, потом пересечём горный перевал и окажемся в приморских альпах в городе Грасс
Сэмпл: https://yadi.sk/d/lV-IAkDlwRpeA
Тип релиза: HDTV 1080i
Контейнер: TS
Видео: AVC,PAL,1920x1080,16x9,11Мбит/сек,25fps
Аудио: Русский,MP2,2Ch,48Khz,192kbps
MediaInfo
ОбщееИдентификатор : 1 (0x1)Полное имя : H:\alps 4(от Кейра до приморских Альп) (02).tsФормат : MPEG-TSРазмер файла : 4,32 ГбайтПродолжительность : 52 м.Режим общего битрейта : ПеременныйОбщий поток : 11,8 Мбит/сек
ВидеоИдентификатор : 102 (0x66)Идентификатор меню : 1102 (0x44E)Формат : AVCФормат/Информация : Advanced Video CodecПрофиль формата : [email protected]Параметр CABAC формата : ДаПараметр ReFrames формата : 4 кадраИдентификатор кодека : 27Продолжительность : 52 м.Битрейт : 11,0 Мбит/секШирина : 1920 пикселейВысота : 1080 пикселейСоотношение сторон : 16:9Частота кадров : 25,000 кадров/секСтандарт вещания : ComponentЦветовое пространство : YUVСубдискретизация насыщенности : 4:2:0Битовая глубина : 8 битТип развёртки : ЧересстрочнаяПорядок развёртки : Верхнее поле первоеБит/(Пиксели*Кадры) : 0.213Размер потока : 4,04 Гбайт (93%)Основные цвета : BT.709Характеристики трансфера : BT.709Коэффициенты матрицы : BT.709
АудиоИдентификатор : 112 (0x70)Идентификатор меню : 1102 (0x44E)Формат : MPEG AudioВерсия формата : Version 1Профиль формата : Layer 2Идентификатор кодека : 3Продолжительность : 52 м.Вид битрейта : ПостоянныйБитрейт : 192 Кбит/секКаналы : 2 каналаЧастота : 48,0 КГцМетод сжатия : С потерямиЗадержка видео : -120 мс.Размер потока : 72,0 Мбайт (2%)Язык : Russian
Скриншоты

If you like the topic, please click share to help develop our site.

To download the file disable ad blocking, and reload the page.

disable adblock How to disable ad blocking?

Download by magnet link 4.32 GB Download Torrent

Login using:

Similar topics



   
Current time is: 17-Feb 14:24 :: All times are UTC + 3