Легендарные города / Villes de legende / Legendary cities
Год выпуска: 2013
Страна: Франция
Жанр: Документальный
Продолжительность: 11 х 26 минут
Перевод: Студийный (одноголосый закадровый)
Доп. инфо о переводе: SDI Media
Описание: Казалось бы, чего мы только не знаем об известных городах мира – Афинах, Нью-Орлеане, Пномпене, Амстердаме, сент-Луисе, Санкт-Петербурге! Но в документально-познавательном цикле “Легендарные города” можно узнать массу неожиданных и, порой, сенсационных фактов, о которых вы даже не подозревали. Вы узнаете, где находится самый старый стул, зачем в Тайланде мужчинам сбривают брови, почему Дом Наполеона находится именно в Америке, хотя он там никогда не был... и много других загадочных историй.
Возрастное ограничение: 12+
Список эпизодов в раздаче:
01. Амстердам
02. Лондон
03. Новый Орлеан
04. Афины
05. Флоренция
06. Санкт-Петербург
07. Пномпень
08. Бангкок
09. Сен-Луи
10. Кантон
11. Пудуччери
История обновления раздачи:
02.03.2016 - добавлена 11 серия (Пудуччери)
05.04.2016 - добавлены 3, 7 и 8 серии
02.10.2016 - добавлена 2 серия (Лондон)
Доп. информация: IPTV Remux (запись потока без перекодирования)
Сэмпл: http://sendfile.su/1201174 (67.54MB)
Тип релиза: HDTV 1080i
Контейнер: TS
Видео: AVC H.264, 1920x1080i (16:9), 25 fps, 8665 kbps , 0.167 bits/pixel
Аудио: MPEG Audio, 2 channels, 192 kbps, 48KHz
MediaInfo
GeneralID : 1 (0x1)Complete name : Легендарные города\10. Легендарные города. Кантон.tsFormat : MPEG-TSFile size : 1.68 GiBDuration : 25mn 44sOverall bit rate mode : VariableOverall bit rate : 9 319 Kbps
VideoID : 323 (0x143)Menu ID : 1 (0x1)Format : AVCFormat/Info : Advanced Video CodecFormat profile : High@L4.0Format settings, CABAC : YesFormat settings, ReFrames : 4 framesCodec ID : 27Duration : 25mn 44sBit rate : 8 665 KbpsWidth : 1 920 pixelsHeight : 1 080 pixelsDisplay aspect ratio : 16:9Frame rate : 25.000 fpsStandard : ComponentColor space : YUVChroma subsampling : 4:2:0Bit depth : 8 bitsScan type : InterlacedScan order : Top Field FirstBits/(Pixel*Frame) : 0.167Stream size : 1.56 GiB (93%)Color primaries : BT.709Transfer characteristics : BT.709Matrix coefficients : BT.709
AudioID : 403 (0x193)Menu ID : 1 (0x1)Format : MPEG AudioFormat version : Version 1Format profile : Layer 2Codec ID : 3Duration : 25mn 44sBit rate mode : ConstantBit rate : 192 KbpsChannel(s) : 2 channelsSampling rate : 48.0 KHzCompression mode : LossyStream size : 35.4 MiB (2%)Language : Russian
Скриншоты

To download the file disable ad blocking, and reload the page.

disable adblock How to disable ad blocking?

Download by magnet link 18.84 GB Download Torrent

Login using:

Similar topics



   
Current time is: 17-Oct 13:32 :: All times are UTC ± 0