Летний сад. Три эпохи
Год выпуска: 2012
Страна: Россия
Студия: RTG production
Жанр: познавательный
Продолжительность: 00:42:06
Перевод: Не требуется
Русские субтитры: нет
Телеканал:Russian Travel Guide
Режиссер: Александр Ефимов
Описание: Летний сад Санкт-Петербурга - любимое детище императора Петра Первого. На протяжении своей трехвековой истории этот парк изменялся практически до неузнаваемости в зависимости от ландшафтной моды, капризов правителей и даже природных катастроф. Сильнейшее наводнение 1777 года почти полностью уничтожило десятки фонтанов, диковинные водные механизмы и изящные постройки, украшавшие сад. Многие памятники, созданные еще при Петре, уходили в небытие, появлялись новые произведения искусства. Масштабные археологические изыскания позволили детально восстановить исторический облик Летнего сада вплоть местонахождения петровских фонтанов, статуй и ширины аллей.
Тип релиза: HDTVRip 1080p
Контейнер: MKV
Видео: AVC,Pal,1920x1080p,16:9,4038kbps,25fps
Аудио: Русский,MP2,2Ch,48Khz,192kbps
MediaInfo
ОбщееУникальный идентификатор : 238642707888319062965033788345363786523 (0xB388E9E91B550313F37040B738A8EB1B)Полное имя : H:\Летний сад. Три эпохи.mkvФормат : MatroskaВерсия формата : Version 2Размер файла : 1,27 ГбайтПродолжительность : 42 м.Режим общего битрейта : ПеременныйОбщий поток : 4316 Кбит/секПрограмма кодирования : Lavf54.63.104Библиотека кодирования : Lavf54.63.104
ВидеоИдентификатор : 1Формат : AVCФормат/Информация : Advanced Video CodecПрофиль формата : High@L4.0Параметр CABAC формата : ДаПараметр ReFrames формата : 4 кадраИдентификатор кодека : V_MPEG4/ISO/AVCПродолжительность : 42 м.Вид битрейта : ПеременныйБитрейт : 4038 Кбит/секМаксимальный битрейт : 4500 Кбит/секШирина : 1920 пикселейВысота : 1080 пикселейСоотношение сторон : 16:9Режим частоты кадров : ПостоянныйЧастота кадров : 25,000 кадров/секЦветовое пространство : YUVСубдискретизация насыщенности : 4:2:0Битовая глубина : 8 битТип развёртки : ПрогрессивнаяБит/(Пиксели*Кадры) : 0.078Размер потока : 1,19 Гбайт (94%)Default : НетForced : Нет
АудиоИдентификатор : 2Формат : MPEG AudioВерсия формата : Version 1Профиль формата : Layer 2Идентификатор кодека : A_MPEG/L2Идентификатор кодека/Подсказка : MP2Продолжительность : 42 м.Вид битрейта : ПостоянныйБитрейт : 192 Кбит/секКаналы : 2 каналаЧастота : 48,0 КГцМетод сжатия : С потерямиРазмер потока : 57,8 Мбайт (4%)Язык : RussianDefault : ДаForced : Нет
Скриншоты

To download the file disable ad blocking, and reload the page.

disable adblock How to disable ad blocking?

Download by magnet link 1.27 GB Download Torrent

Login using:

Загрузка...

Similar topics



   
Current time is: 15-Dec 16:17 :: All times are UTC + 3