По следам пионеров авиапочты. Касабланка / Par Avion
Год выпуска: 2012
Страна: Франция
Студия: Arte France & Magneto Presse
Жанр: познавательный
Продолжительность: 00:25:53
Перевод: Профессиональный (двухголосый закадровый)
Доп. инфо о переводе: закадровый текст В.Герасимов и Н.Казначеева
Телеканал:HDlife
Режиссер: Christophe Brunet, Cyril Thomas / Кристоф Бруне, Сирил Тома
Описание: Следующий пункт назначения Касабланка(Марокко).Гибралтарский пролив отделяет Марокко от Европы. Касабланка - это конечная остановка почтовой авиалинии Летекуэра 1925года
Сэмпл: https://yadi.sk/d/d6xR7ccRvHzac
Тип релиза: HDTV 1080i
Контейнер: TS
Видео: AVC,1920x1080,16:9,7798Kbps,25fps
Аудио: Русский,MP2,2Ch,48Khz,192Kbps
MediaInfo
ОбщееИдентификатор : 1 (0x1)Полное имя : H:\Касабланка (HDlife).tsФормат : MPEG-TSРазмер файла : 1,52 ГбайтПродолжительность : 25 м.Режим общего битрейта : ПеременныйОбщий поток : 8408 Кбит/сек
ВидеоИдентификатор : 323 (0x143)Идентификатор меню : 12103 (0x2F47)Формат : AVCФормат/Информация : Advanced Video CodecПрофиль формата : High@L4.0Параметр CABAC формата : ДаПараметр ReFrames формата : 4 кадраИдентификатор кодека : 27Продолжительность : 25 м.Битрейт : 7798 Кбит/секШирина : 1920 пикселейВысота : 1080 пикселейСоотношение сторон : 16:9Частота кадров : 25,000 кадров/секСтандарт вещания : ComponentЦветовое пространство : YUVСубдискретизация насыщенности : 4:2:0Битовая глубина : 8 битТип развёртки : ЧересстрочнаяПорядок развёртки : Верхнее поле первоеБит/(Пиксели*Кадры) : 0.150Размер потока : 1,41 Гбайт (93%)Основные цвета : BT.709Характеристики трансфера : BT.709Коэффициенты матрицы : BT.709
АудиоИдентификатор : 112 (0x70)Идентификатор меню : 12103 (0x2F47)Формат : MPEG AudioВерсия формата : Version 1Профиль формата : Layer 2Идентификатор кодека : 3Продолжительность : 25 м.Вид битрейта : ПостоянныйБитрейт : 192 Кбит/секКаналы : 2 каналаЧастота : 48,0 КГцМетод сжатия : С потерямиЗадержка видео : -40 мс.Размер потока : 35,6 Мбайт (2%)Язык : Russian
Скриншоты

Для скачивания файла отключите блокировку рекламы и перезагрузите страницу.

disable adblock Как отключить блокировку рекламы?

Скачать по магнет ссылке 1,52 GB 

Войти с помощью:

Похожие раздачи

Внимание! Контент 18+ если вы младше данного возраста, НЕ переходите по ссылке!!!


   
Текущее время: 16-Авг 08:33 :: Часовой пояс: UTC ± 0