По следам пионеров авиапочты. От Тулузы до Барселоны / Par Avion
Год выпуска: 2012
Страна: Франция
Студия: Arte France & Magneto Presse
Жанр: познавательный
Продолжительность: 00:52:09
Перевод: Профессиональный (двухголосый закадровый)
Доп. инфо о переводе: текст читают В.Герасимов и Н.Казначеева
Русские субтитры: нет
Телеканал:HD Life
Режиссер: Christophe Brunet, Cyril Thomas / Кристоф Бруне, Сирил Тома
Описание: Путешествие начнётся во французском городе Тулуза и с небольшими остановками завершится в Барселоне, город в Испании. Барселона важнейший пункт в европейских маршрутах пионеров первопроходцев авиапочты
Сэмпл: https://yadi.sk/d/A_kVIUVFv2hk7
Тип релиза: HDTV 1080i
Контейнер: TS
Видео: AVC,1920x1080,16:9,7787kbps,25fps
Аудио: Русский,MP2,2Ch,48Khz,192Kbps
MediaInfo
ВидеоИдентификатор : 323 (0x143)Идентификатор меню : 12103 (0x2F47)Формат : AVCФормат/Информация : Advanced Video CodecПрофиль формата : High@L4.0Параметр CABAC формата : ДаПараметр ReFrames формата : 4 кадраИдентификатор кодека : 27Продолжительность : 52 м.Битрейт : 7787 Кбит/секШирина : 1920 пикселейВысота : 1080 пикселейСоотношение сторон : 16:9Частота кадров : 25,000 кадров/секСтандарт вещания : ComponentЦветовое пространство : YUVСубдискретизация насыщенности : 4:2:0Битовая глубина : 8 битТип развёртки : ЧересстрочнаяПорядок развёртки : Верхнее поле первоеБит/(Пиксели*Кадры) : 0.150Размер потока : 2,84 Гбайт (93%)Основные цвета : BT.709Характеристики трансфера : BT.709Коэффициенты матрицы : BT.709
АудиоИдентификатор : 112 (0x70)Идентификатор меню : 12103 (0x2F47)Формат : MPEG AudioВерсия формата : Version 1Профиль формата : Layer 2Идентификатор кодека : 3Продолжительность : 52 м.Вид битрейта : ПостоянныйБитрейт : 192 Кбит/секКаналы : 2 каналаЧастота : 48,0 КГцМетод сжатия : С потерямиЗадержка видео : -120 мс.Размер потока : 71,6 Мбайт (2%)Язык : Russian
Скриншоты

To download the file disable ad blocking, and reload the page.

disable adblock How to disable ad blocking?

Download by magnet link 3.06 GB Download Torrent

Login using:

Similar topics



   
Current time is: 18-Oct 20:07 :: All times are UTC ± 0