По следам пионеров авиапочты.Шотландия.Северная часть-Гебридские острова / Par Avion
Год выпуска: 2012
Страна: Франция
Студия: Arte France & Magneto Presse
Жанр: познавательный
Продолжительность: 00:52:18
Перевод: Студийный (одноголосый закадровый)
Доп. инфо о переводе: тпо ред медиа
Русские субтитры: нет
Телеканал:HD Life
Режиссер: Christophe Brunet, Cyril Thomas / Кристоф Бруне, Сирил Тома
Описание: Путешествие по знаменитому озеру Лох-Несс, старинный замок горца Маклауда из одноимённого фильма и многое другое в путешествии по Шотландии с последующим полётом на Гебридские острова
Сэмпл: https://yadi.sk/d/ZXCx15zzuiGEe
Тип релиза: HDTV 1080i
Контейнер: TS
Видео: AVC,1920x1080,16:9,10Mb,25fps
Аудио: Русский,MP2,2Ch,48Khz,192Kbps
MediaInfo
ОбщееИдентификатор : 1 (0x1)Полное имя : H:\По следам пионеров авиапочты.Шотландия. Северная часть - Гебридские острова.tsФормат : MPEG-TSРазмер файла : 3,98 ГбайтПродолжительность : 52 м.Режим общего битрейта : ПеременныйОбщий поток : 10,9 Мбит/сек
ВидеоИдентификатор : 323 (0x143)Идентификатор меню : 12103 (0x2F47)Формат : AVCФормат/Информация : Advanced Video CodecПрофиль формата : High@L4.0Параметр CABAC формата : ДаПараметр ReFrames формата : 4 кадраИдентификатор кодека : 27Продолжительность : 52 м.Битрейт : 10,2 Мбит/секШирина : 1920 пикселейВысота : 1080 пикселейСоотношение сторон : 16:9Частота кадров : 25,000 кадров/секСтандарт вещания : ComponentЦветовое пространство : YUVСубдискретизация насыщенности : 4:2:0Битовая глубина : 8 битТип развёртки : ЧересстрочнаяПорядок развёртки : Верхнее поле первоеБит/(Пиксели*Кадры) : 0.196Размер потока : 3,71 Гбайт (93%)Основные цвета : BT.709Характеристики трансфера : BT.709Коэффициенты матрицы : BT.709
АудиоИдентификатор : 403 (0x193)Идентификатор меню : 12103 (0x2F47)Формат : MPEG AudioВерсия формата : Version 1Профиль формата : Layer 2Идентификатор кодека : 3Продолжительность : 52 м.Вид битрейта : ПостоянныйБитрейт : 192 Кбит/секКаналы : 2 каналаЧастота : 48,0 КГцМетод сжатия : С потерямиЗадержка видео : -80 мс.Размер потока : 71,8 Мбайт (2%)Язык : Russian
Скриншоты

Для скачивания файла отключите блокировку рекламы и перезагрузите страницу.

disable adblock Как отключить блокировку рекламы?

Скачать по магнет ссылке 3,98 GB 

Войти с помощью:

Похожие раздачи

Внимание! Контент 18+ если вы младше данного возраста, НЕ переходите по ссылке!!!


   
Текущее время: 16-Авг 08:31 :: Часовой пояс: UTC ± 0