Альпы с высоты птичьего полета часть 2 / Les Alpes vues du ciel
Год выпуска: 2011
Страна: Франция
Студия: MC4/ARTE G.E.I.E
Жанр: познавательный
Продолжительность: 00:52:13
Перевод: Профессиональный (двухголосый закадровый)
Доп. инфо о переводе: тпо рэд медиа
Русские субтитры: нет
Телеканал:HD Life
Режиссер: Жан Афанасьефф / Jean Afanassieff
Описание: Вам предстоит увидеть Альпы с высоты птичьего полета от Швейцарии до Франции. Вас ждет путешествие из Бафортена до Савойи. Французские кинематографисты предлагают вашему вниманию 5 увлекательных эпизодов, по которым вы сможете оценить удивительно разнообразные ландшафты, узнаете об исторических достопримечательностях и современных видах экстремального спорта, посетите уединенные горные обители и познакомитесь с чрезвычайно гостеприимными местными жителями.
Сэмпл: https://yadi.sk/d/LpDd3mmHubzx8
Тип релиза: HDTV 1080i
Контейнер: TS
Видео: AVC,Pal,1920x1080,16x9,7733kbps,25fps
Аудио: Русский,MP2,2Ch,48Khz,192kbps
MediaInfo
ОбщееИдентификатор : 1 (0x1)Полное имя : H:\Альпы с высоты птичьего полета (part II)От Бафортена до Савойи.tsФормат : MPEG-TSРазмер файла : 3,04 ГбайтПродолжительность : 52 м.Режим общего битрейта : ПеременныйОбщий поток : 8339 Кбит/сек
ВидеоИдентификатор : 102 (0x66)Идентификатор меню : 1102 (0x44E)Формат : AVCФормат/Информация : Advanced Video CodecПрофиль формата : High@L4.0Параметр CABAC формата : ДаПараметр ReFrames формата : 4 кадраИдентификатор кодека : 27Продолжительность : 52 м.Битрейт : 7733 Кбит/секШирина : 1920 пикселейВысота : 1080 пикселейСоотношение сторон : 16:9Частота кадров : 25,000 кадров/секСтандарт вещания : ComponentЦветовое пространство : YUVСубдискретизация насыщенности : 4:2:0Битовая глубина : 8 битТип развёртки : ЧересстрочнаяПорядок развёртки : Верхнее поле первоеБит/(Пиксели*Кадры) : 0.149Размер потока : 2,82 Гбайт (93%)Основные цвета : BT.709Характеристики трансфера : BT.709Коэффициенты матрицы : BT.709
АудиоИдентификатор : 112 (0x70)Идентификатор меню : 1102 (0x44E)Формат : MPEG AudioВерсия формата : Version 1Профиль формата : Layer 2Идентификатор кодека : 3Продолжительность : 52 м.Вид битрейта : ПостоянныйБитрейт : 192 Кбит/секКаналы : 2 каналаЧастота : 48,0 КГцМетод сжатия : С потерямиРазмер потока : 71,7 Мбайт (2%)Язык : Russian
Скриншоты

To download the file disable ad blocking, and reload the page.

disable adblock How to disable ad blocking?

Download by magnet link 3.04 GB Download Torrent

Login using:

Similar topics



   
Current time is: 17-Oct 15:06 :: All times are UTC ± 0