Горные реки Карачая
Год выпуска: 2013
Страна: Россия
Студия: RTG production
Жанр: познавательный
Продолжительность: 00:24:09
Перевод: Не требуется
Русские субтитры: нет
Телеканал:RTG HD
Режиссер: Алексей Старченко
Описание: Территория Карачаево-Черкесии покрыта густой сетью рек, которые формируют долины и балки в горном рельефе. Эти реки выполняют для многих населенных пунктов горной местности роль единственного пути, по которому можно добраться до глубинных горных районов. Все реки Карачаево-Черкесии, омывающие горные степи и пронизывающие широколиственные леса, обладают какой-то притягательной силой.
Сэмпл: https://yadi.sk/d/2yct9sSIuaGri
Тип релиза: HDTVRip 1080p
Контейнер: TS
Видео: AVC,PAL,1920x1080,16x9,4073kbps,25fps
Аудио: Русский,MP2,2Ch,48Khz,192kbps
MediaInfo
ОбщееИдентификатор : 1 (0x1)Полное имя : F:\Горные реки Карачая.(RTG).tsФормат : MPEG-TSРазмер файла : 775 МбайтПродолжительность : 24 м.Режим общего битрейта : ПеременныйОбщий поток : 4488 Кбит/сек
ВидеоИдентификатор : 101 (0x65)Идентификатор меню : 1 (0x1)Формат : AVCФормат/Информация : Advanced Video CodecПрофиль формата : [email protected]Параметр CABAC формата : ДаПараметр ReFrames формата : 4 кадраИдентификатор кодека : 27Продолжительность : 24 м.Вид битрейта : ПеременныйБитрейт : 4073 Кбит/секМаксимальный битрейт : 4500 Кбит/секШирина : 1920 пикселейВысота : 1080 пикселейСоотношение сторон : 16:9Частота кадров : 25,000 кадров/секЦветовое пространство : YUVСубдискретизация насыщенности : 4:2:0Битовая глубина : 8 битТип развёртки : ПрогрессивнаяБит/(Пиксели*Кадры) : 0.079Размер потока : 703 Мбайт (91%)
АудиоИдентификатор : 110 (0x6E)Идентификатор меню : 1 (0x1)Формат : MPEG AudioВерсия формата : Version 1Профиль формата : Layer 2Идентификатор кодека : 3Продолжительность : 24 м.Вид битрейта : ПостоянныйБитрейт : 192 Кбит/секКаналы : 2 каналаЧастота : 48,0 КГцМетод сжатия : С потерямиРазмер потока : 33,2 Мбайт (4%)Язык : Russian
Скриншоты

If you like the topic, please click share to help develop our site.

To download the file disable ad blocking, and reload the page.

disable adblock How to disable ad blocking?

Download by magnet link 775 MB Download Torrent

Login using:

Similar topics



   
Current time is: 23-Jul 02:00 :: All times are UTC + 3