По следам пионеров авиапочты. Гибралтар / Par Avion
Год выпуска: 2012
Страна: Франция
Студия: Arte France & Magneto Presse
Жанр: познавательный
Продолжительность: 00:26:04
Перевод: Студийный (одноголосый закадровый)
Доп. инфо о переводе: тпо ред медиа
Русские субтитры: нет
Телеканал:HD Life
Режиссер: Christophe Brunet, Cyril Thomas / Кристоф Бруне, Сирил Тома
Описание: Прямиком из Испании, неутомимый Венсан отправляется на Гибралтар. Гибралтар - заморская территория Великобритании в Испании,находящаяся в южной части Пиренейского полуострова, там, где Европа встречается с Африкой.
Сэмпл: https://yadi.sk/d/8InEoriPuXbpB
Тип релиза: HDTV 1080i
Контейнер: TS
Видео: AVC, 1920x1080, 16:9, 6344Kbps, 25fps
Аудио: Русский, MP2, 2Ch, 48Khz, 192Kbps
MediaInfo
ОбщееИдентификатор : 1 (0x1)Полное имя : H:\По следам пионеров авиапочты .Гибралтар.tsФормат : MPEG-TSРазмер файла : 1,16 ГбайтПродолжительность : 26 м.Режим общего битрейта : ПеременныйОбщий поток : 6344 Кбит/сек
ВидеоИдентификатор : 323 (0x143)Идентификатор меню : 12103 (0x2F47)Формат : AVCФормат/Информация : Advanced Video CodecПрофиль формата : [email protected]Параметр CABAC формата : ДаПараметр ReFrames формата : 4 кадраИдентификатор кодека : 27Продолжительность : 26 м.Битрейт : 5837 Кбит/секШирина : 1920 пикселейВысота : 1080 пикселейСоотношение сторон : 16:9Частота кадров : 25,000 кадров/секСтандарт вещания : ComponentЦветовое пространство : YUVСубдискретизация насыщенности : 4:2:0Битовая глубина : 8 битТип развёртки : ЧересстрочнаяПорядок развёртки : Верхнее поле первоеБит/(Пиксели*Кадры) : 0.113Размер потока : 1,06 Гбайт (92%)Основные цвета : BT.709Характеристики трансфера : BT.709Коэффициенты матрицы : BT.709
АудиоИдентификатор : 403 (0x193)Идентификатор меню : 12103 (0x2F47)Формат : MPEG AudioВерсия формата : Version 1Профиль формата : Layer 2Идентификатор кодека : 3Продолжительность : 26 м.Вид битрейта : ПостоянныйБитрейт : 192 Кбит/секКаналы : 2 каналаЧастота : 48,0 КГцМетод сжатия : С потерямиРазмер потока : 35,8 Мбайт (3%)Язык : Russian
Скриншоты

If you like the topic, please click share to help develop our site.

To download the file disable ad blocking, and reload the page.

disable adblock How to disable ad blocking?

Download by magnet link 1.16 GB Download Torrent

Login using:

Similar topics



   
Current time is: 22-Feb 05:19 :: All times are UTC + 3