Пролётом над Европой. Испания / Par Avion
Год выпуска: 2013
Страна: Франция
Студия: Arte France & Magneto Presse
Жанр: познавательный
Продолжительность: 00:25:35
Перевод: Студийный (одноголосый закадровый)
Русские субтитры: нет
Телеканал:Travel+Adventure HD
Режиссер: Christophe Brunet, Cyril Thomas / Кристоф Бруне, Сирил Тома
Описание: "Ведь все взрослые сначала были детьми, только мало кто об этом из них помнит" - написал Антуан де Сент-Экзюпери в посвящение к своей сказке "Маленький принц". Пилот и репортёр Венсан Нгуйен с детства мечтал совершить путешествие на антикварных самолётах по маршруту полётов легендарного французского лётчика и писателя. Венсан посвятил свой полёт 70-летию выхода в свет сказки "Маленький принц".
Сэмпл: https://yadi.sk/d/ALI82onZuXZy2
Тип релиза: HDTVRip 1080p
Контейнер: TS
Видео: AVC, 1920x1080, 16:9, 4811Kbps, 25fps
Аудио: Русский, AAC, 2Ch, 48Khz, 192Kbps
Аудио 2: France, AAC, 2Ch, 48Khz, 192Kbps
MediaInfo
ОбщееИдентификатор : 1 (0x1)Полное имя : H:\Пролётом по Европе.Испания.tsФормат : MPEG-TSРазмер файла : 880 МбайтПродолжительность : 25 м.Режим общего битрейта : ПеременныйОбщий поток : 4811 Кбит/сек
ВидеоИдентификатор : 101 (0x65)Идентификатор меню : 1 (0x1)Формат : AVCФормат/Информация : Advanced Video CodecПрофиль формата : High@L4.0Параметр CABAC формата : ДаПараметр ReFrames формата : 4 кадраИдентификатор кодека : 27Продолжительность : 25 м.Вид битрейта : ПеременныйБитрейт : 4186 Кбит/секМаксимальный битрейт : 4500 Кбит/секШирина : 1920 пикселейВысота : 1080 пикселейСоотношение сторон : 16:9Частота кадров : 25,000 кадров/секЦветовое пространство : YUVСубдискретизация насыщенности : 4:2:0Битовая глубина : 8 битТип развёртки : ПрогрессивнаяБит/(Пиксели*Кадры) : 0.081Размер потока : 766 Мбайт (87%)
Аудио #1Идентификатор : 110 (0x6E)Идентификатор меню : 1 (0x1)Формат : AACФормат/Информация : Advanced Audio CodecВерсия формата : Version 4Профиль формата : LCРежим смешивания : ADTSИдентификатор кодека : 15Продолжительность : 25 м.Вид битрейта : ПеременныйБитрейт : 192 Кбит/секКаналы : 2 каналаРасположение каналов : Front: L RЧастота : 48,0 КГцМетод сжатия : С потерямиРазмер потока : 35,1 Мбайт (4%)
Аудио #2Идентификатор : 111 (0x6F)Идентификатор меню : 1 (0x1)Формат : AACФормат/Информация : Advanced Audio CodecВерсия формата : Version 4Профиль формата : LCРежим смешивания : ADTSИдентификатор кодека : 15Продолжительность : 25 м.Вид битрейта : ПеременныйБитрейт : 192 Кбит/секКаналы : 2 каналаРасположение каналов : Front: L RЧастота : 48,0 КГцМетод сжатия : С потерямиРазмер потока : 35,1 Мбайт (4%)
Скриншоты

Для скачивания файла отключите блокировку рекламы и перезагрузите страницу.

disable adblock Как отключить блокировку рекламы?

Скачать по магнет ссылке 880 MB 

Войти с помощью:

Похожие раздачи

Внимание! Контент 18+ если вы младше данного возраста, НЕ переходите по ссылке!!!


   
Текущее время: 17-Авг 11:25 :: Часовой пояс: UTC ± 0