Валдис Пельш. Путешествие к центру земли.
Год выпуска: 2016
Страна: Россия
Студия: РД студия
Телеканал: Первый канал HD

Жанр: Документальный
Продолжительность: 00:52:16
Перевод: Не требуется
Режиссер: Валдис Пельш
Описание: Продюсер, автор и ведущий фильма Валдис Пельш: "Алтай, безусловно, входит в пятерку мест, где стоит побывать каждому. Можно сказать, что снимая этот фильм, я удовлетворил собственные туристические амбиции. У нас было две экспедиции — летняя и зимняя, мы очень стремительно передвигались по республике на вертолетах, проводя в небе по 5-6 часов в день. Нам помогали все, кого мы встретили, казалось, все население Алтая. И все равно у меня и у съемочной группы осталось ощущение, что мы многого не успели. В финале фильма я говорю: "Совершенно спокойно можно посвятить всю жизнь съемкам Алтая". И это действительно так. Хватит смотреть на мир глазами Сенкевича! Своими глазами в несколько раз лучше! Мы хотели поделиться своими ощущениями и заинтересовать зрителя этим удивительным местом. Возможно, после нашего фильма появится еще больше желающих побывать там".
Интервью для фильма дали министр обороны РФ, Президент Русского географического общества Сергей Шойгу, Член попечительского совета РГО Владимир Петрович Евтушенков и глава Республики Алтай Александр Васильевич Бердников.
Тип релиза: HDTVRip 1080p
Контейнер: MKV
Видео: AVC/H.264, 1920x1080, 25 fps, ~4376 kb/s
Аудио: русский, AC-3, 2 ch, 48000 Hz, 256 Kbps
MediaInfo
ОбщееУникальный идентификатор : 226764540205023393907741080910976502428 (0xAA99430754A0EC408A0AFEA4927FCA9C)Полное имя : F:\ТВ\Валдис Пельш. Путешествие к центур Земли_HDTVRip_1080p_steep.mkvФормат : MatroskaВерсия формата : Version 4 / Version 2Размер файла : 1,72 ГбайтПродолжительность : 52 м.Общий поток : 4725 Кбит/секДата кодирования : UTC 2016-08-22 06:55:29Программа кодирования : mkvmerge v9.3.1 ('Mask Machine') 64bitБиблиотека кодирования : libebml v1.3.4 + libmatroska v1.4.5
ВидеоИдентификатор : 1Формат : AVCФормат/Информация : Advanced Video CodecПрофиль формата : High@L4Параметр CABAC формата : ДаПараметр ReFrames формата : 4 кадраИдентификатор кодека : V_MPEG4/ISO/AVCПродолжительность : 52 м.Битрейт : 4467 Кбит/секШирина : 1920 пикселейВысота : 1080 пикселейСоотношение сторон : 16:9Режим частоты кадров : ПостоянныйЧастота кадров : 25,000 кадров/секЦветовое пространство : YUVСубдискретизация насыщенности : 4:2:0Битовая глубина : 8 битТип развёртки : ПрогрессивнаяБит/(Пиксели*Кадры) : 0.086Размер потока : 1,63 Гбайт (95%)Библиотека кодирования : x264 core 148 r2705M 3f5ed56Настройки программы : cabac=1 / ref=2 / deblock=1:-2:-2 / analyse=0x3:0x113 / me=umh / subme=9 / psy=1 / psy_rd=1.00:0.20 / mixed_ref=1 / me_range=24 / chroma_me=1 / trellis=1 / 8x8dct=1 / cqm=0 / deadzone=21,11 / fast_pskip=1 / chroma_qp_offset=-3 / threads=4 / lookahead_threads=1 / sliced_threads=0 / nr=0 / decimate=1 / interlaced=0 / bluray_compat=0 / constrained_intra=0 / bframes=6 / b_pyramid=2 / b_adapt=2 / b_bias=0 / direct=1 / weightb=1 / open_gop=0 / weightp=2 / keyint=250 / keyint_min=25 / scenecut=40 / intra_refresh=0 / rc_lookahead=40 / rc=crf / mbtree=1 / crf=24.0 / qcomp=0.60 / qpmin=0 / qpmax=69 / qpstep=4 / ip_ratio=1.40 / aq=1:1.00Default : ДаForced : НетЦветовой диапазон : LimitedОсновные цвета : BT.709Характеристики трансфера : BT.709Коэффициенты матрицы : BT.709
АудиоИдентификатор : 2Формат : AC-3Формат/Информация : Audio Coding 3Расширение режима : CM (complete main)Параметр Endianness формата : BigИдентификатор кодека : A_AC3Продолжительность : 52 м.Вид битрейта : ПостоянныйБитрейт : 256 Кбит/секКаналы : 2 каналаРасположение каналов : Front: L RЧастота : 48,0 КГцЧастота кадров : 31,250 кадров/сек (1536 spf)Метод сжатия : С потерямиРазмер потока : 95,7 Мбайт (5%)Язык : RussianDefault : ДаForced : Нет
Скриншоты

To download the file disable ad blocking, and reload the page.

disable adblock How to disable ad blocking?

Download by magnet link 1.72 GB Download Torrent

Login using:

Similar topics



   
Current time is: 17-Oct 13:32 :: All times are UTC ± 0