Беловежская пуща: первозданный лес / The Primeval Forest of Belovezhskaya Pushcha
Год выпуска: 2014
Студия: VS Media
Жанр: Документальный
Продолжительность: 00:43:58
Перевод: Профессиональный (дублированный)
Режиссер: Антон Верстаков / Anton Verstakov
Описание: "Это заповедник Беловежская пуща в Беларуси. Древний лес, который находится под защитой благодаря своим огромным размерам, труднодоступности и безграничному величию. Это капсула времени для многих животных. Они сохранились здесь, в то время как остальные первобытные экосистемы планеты были разрушены человеком. Заповедник позволил выжить многим видам, которые практически вымерли в других регионах Земли", — сообщает диктор в самом начале фильма. Оказалось, что зубр, как и подорлик белый, и волк, и летучая мышь - тот редчайший представитель фауны, которого нигде, кроме как в Беловежской пуще встретить нельзя. Съемочная группа "Animal Planet" не могла обойти вниманием белорусские природные богатства. Создатели постарались уместить в него более чем полторы тысячи гектаров заповедника и самое большое в Европе количество видов растений и животных. Съемки картины продолжались два месяца, фильм создавался по инициативе Министерства информации Беларуси при поддержке Управления делами Президента. Зрелищный фильм показывает природные красоты уникального реликтового леса, рассказывает о жизни его фауны. Авторы позаботились о том, чтобы зритель увидел Беловежскую пущу с необычных ракурсов. Авторы фильма отмечают большую привлекательность национального парка для туристов и выражают надежду на то, что после показа по всей Европе увеличится туристический поток в Беловежскую пущу. Красоту белорусской пущи зритель увидит глазами троих операторов, которые на три летних месяца поселились в Беловежье и вместе с проводниками и учеными прошли самыми потаенными тропами. Технологии съемочного режима гости максимально подчинили сохранению экологического равновесия. Ради редкого кадра - многодневные пешие маршруты и многочасовые телезасады на сверхосторожных обитателей пущи. За их непосредственностью и очарованием создателям удалось увидеть и передать зрителю не только природные богатства, но и бережное отношение белорусов к ним. Фильм о Беловежской пуще - не последний проект "Animal Planet" в Беларуси. "Дискавери" хотел бы увидеть и запечатлеть природный заповедник в разные поры года.
Доп. информация: IPTV Remux (запись потока без перекодирования)
Сэмпл: http://sendfile.su/1257776
Тип релиза: HDTV 1080i
Контейнер: TS
Видео: AVC H.264, 1920x1080i (16:9), 25 fps, 9388 kbps , 0.181 bits/pixel
Аудио 1 (Rus): AC3, 6 channels, 384 Kbps, 48KHz
Аудио 2 (Eng): AC3, 6 channels, 384 Kbps, 48KHz
MediaInfo
GeneralID : 1 (0x1)Complete name : Беловежская пуща - первозданный лес.tsFormat : MPEG-TSFile size : 3.28 GiBDuration : 43mn 58sOverall bit rate mode : VariableOverall bit rate : 10.7 Mbps
VideoID : 324 (0x144)Menu ID : 1 (0x1)Format : AVCFormat/Info : Advanced Video CodecFormat profile : [email protected] settings, CABAC : YesFormat settings, ReFrames : 4 framesFormat settings, GOP : M=4, N=28Codec ID : 27Duration : 43mn 58sBit rate : 9 388 KbpsWidth : 1 920 pixelsHeight : 1 080 pixelsDisplay aspect ratio : 16:9Frame rate : 25.000 fpsStandard : ComponentColor space : YUVChroma subsampling : 4:2:0Bit depth : 8 bitsScan type : InterlacedScan order : Top Field FirstBits/(Pixel*Frame) : 0.181Stream size : 2.88 GiB (88%)Color primaries : BT.709Transfer characteristics : BT.709Matrix coefficients : BT.709
Audio #1ID : 404 (0x194)Menu ID : 1 (0x1)Format : AC-3Format/Info : Audio Coding 3Mode extension : CM (complete main)Format settings, Endianness : BigCodec ID : 6Duration : 43mn 58sBit rate mode : ConstantBit rate : 384 KbpsChannel(s) : 6 channelsChannel positions : Front: L C R, Side: L R, LFESampling rate : 48.0 KHzBit depth : 16 bitsCompression mode : LossyStream size : 121 MiB (4%)Language : Russian
Audio #2ID : 414 (0x19E)Menu ID : 1 (0x1)Format : AC-3Format/Info : Audio Coding 3Mode extension : CM (complete main)Format settings, Endianness : BigCodec ID : 6Duration : 43mn 58sBit rate mode : ConstantBit rate : 384 KbpsChannel(s) : 6 channelsChannel positions : Front: L C R, Side: L R, LFESampling rate : 48.0 KHzBit depth : 16 bitsCompression mode : LossyStream size : 121 MiB (4%)Language : English
Скриншоты

If you like the topic, please click share to help develop our site.

To download the file disable ad blocking, and reload the page.

disable adblock How to disable ad blocking?

Download by magnet link 3.28 GB Download Torrent

Login using:

Similar topics



   
Current time is: 23-Jul 17:20 :: All times are UTC + 3