Альпы с высоты птичьего полета / Les Alpes vues du ciel
Год выпуска: 2011
Страна: Франция
Студия: MC4/ARTE G.E.I.E
Жанр: познавательный
Продолжительность: 00:52:19
Перевод: Профессиональный (двухголосый закадровый)
Доп. инфо о переводе: тпо рэд медиа
Русские субтитры: нет
Телеканал:HD Life
Режиссер: Жан Афанасьефф / Jean Afanassieff
Описание: Пейзажи, от которых захватывает дух! От Бернского высокогорья до Вале Альпы - это рай для пеших туристов, лыжников и альпинистов. Более 50 вершин высотой более 4000 метров и ледник Алетч - самый длинный в Альпах - внесены в список всемирного наследия ЮНЕСКО.
Сэмпл: https://yadi.sk/i/0yf53YTDuEFWi
Тип релиза: HDTVRip 720p
Контейнер: MKV
Видео: AVC H.264,Pal,1280x720,16x9,3641kbps,25fps
Аудио: Русский, mp3, 2Ch, 48Khz, 192kbps
MediaInfo
ОбщееУникальный идентификатор : 48850918800798627197632227005649793594 (0x24C058406ACED31745561E4318FE323A)Полное имя : H:\Альпы с высоты птичьего полета 1(France 2012)От Шабле до Монблана.mkvФормат : MatroskaВерсия формата : Version 2Размер файла : 1,43 ГбайтПродолжительность : 52 м.Режим общего битрейта : ПеременныйОбщий поток : 3911 Кбит/секПрограмма кодирования : Lavf54.63.104Библиотека кодирования : Lavf54.63.104
ВидеоИдентификатор : 1Формат : AVCФормат/Информация : Advanced Video CodecПрофиль формата : Main@L4.0Параметр CABAC формата : ДаПараметр ReFrames формата : 1 кадрПараметр GOP формата : M=1, N=15Идентификатор кодека : V_MPEG4/ISO/AVCПродолжительность : 52 м.Вид битрейта : ПеременныйБитрейт : 3641 Кбит/секМаксимальный битрейт : 11,1 Мбит/секШирина : 1280 пикселейВысота : 720 пикселейСоотношение сторон : 16:9Режим частоты кадров : ПостоянныйЧастота кадров : 25,000 кадров/секЦветовое пространство : YUVСубдискретизация насыщенности : 4:2:0Битовая глубина : 8 битТип развёртки : ПрогрессивнаяБит/(Пиксели*Кадры) : 0.158Размер потока : 1,33 Гбайт (93%)Default : ДаForced : Нет
АудиоИдентификатор : 2Формат : MPEG AudioВерсия формата : Version 1Профиль формата : Layer 3Режим : Joint stereoРасширение режима : MS StereoИдентификатор кодека : A_MPEG/L3Идентификатор кодека/Подсказка : MP3Продолжительность : 52 м.Вид битрейта : ПостоянныйБитрейт : 192 Кбит/секКаналы : 2 каналаЧастота : 48,0 КГцМетод сжатия : С потерямиРазмер потока : 71,9 Мбайт (5%)Default : ДаForced : Нет
Скриншоты

To download the file disable ad blocking, and reload the page.

disable adblock How to disable ad blocking?

Download by magnet link 1.43 GB Download Torrent

Login using:

Similar topics



   
Current time is: 15-Oct 15:37 :: All times are UTC ± 0