Тамань. Полуостров сокровищ
Год выпуска: 2015
Страна: Россия
Жанр: познавательный
Продолжительность: 00:33:50
Перевод: Не требуется
Русские субтитры: нет
Телеканал: RTG HD
Описание: Тамань. Земля, неразрывно связанная с двумя морями: Черным и Азовским. Километры пляжей и бесконечные плантации виноградников, грязевые вулканы и заросли цветущего лотоса. Территория, которую по праву называют полуостровом сокровищ и тайн. В далекие времена здесь находились крупные греческие колонии Гермонасса и Фанагория.
Режисёр: Алексей Cтарченко
Сэмпл: https://yadi.sk/d/2IqzNjz3u3Asx
Тип релиза: HDTV 1080i
Контейнер: TS
Видео: AVC,PAL,1920x1080,16x9,4075kbps,25fps
Аудио: Русский,AAC,2Ch,48Khz,188kbps
MediaInfo
ОбщееИдентификатор : 1 (0x1)Полное имя : H:\Тамань. Полуостров сокровищ.tsФормат : MPEG-TSРазмер файла : 1,06 ГбайтПродолжительность : 33 м.Режим общего битрейта : ПеременныйОбщий поток : 4487 Кбит/сек
ВидеоИдентификатор : 101 (0x65)Идентификатор меню : 1 (0x1)Формат : AVCФормат/Информация : Advanced Video CodecПрофиль формата : High@L4.0Параметр CABAC формата : ДаПараметр ReFrames формата : 4 кадраИдентификатор кодека : 27Продолжительность : 33 м.Вид битрейта : ПеременныйБитрейт : 4075 Кбит/секМаксимальный битрейт : 4500 Кбит/секШирина : 1920 пикселейВысота : 1080 пикселейСоотношение сторон : 16:9Частота кадров : 25,000 кадров/секЦветовое пространство : YUVСубдискретизация насыщенности : 4:2:0Битовая глубина : 8 битТип развёртки : ПрогрессивнаяБит/(Пиксели*Кадры) : 0.079Размер потока : 986 Мбайт (91%)
АудиоИдентификатор : 110 (0x6E)Идентификатор меню : 1 (0x1)Формат : AACФормат/Информация : Advanced Audio CodecВерсия формата : Version 4Профиль формата : LCРежим смешивания : ADTSИдентификатор кодека : 15Продолжительность : 33 м.Вид битрейта : ПеременныйБитрейт : 188 Кбит/секКаналы : 2 каналаРасположение каналов : Front: L RЧастота : 48,0 КГцМетод сжатия : С потерямиРазмер потока : 45,5 Мбайт (4%)
Скриншоты

To download the file disable ad blocking, and reload the page.

disable adblock How to disable ad blocking?

Download by magnet link 1.06 GB Download Torrent

Login using:

Загрузка...

Similar topics



   
Current time is: 13-Dec 07:09 :: All times are UTC + 3