Дикий Йеллоустоун [3 фильма из 3] / Wild Yellowstone
UPDATE: добавлен эпизод "Волчица"
Год выпуска: 2014
Страна: США / Германия
Студия: Brain Farm / Terra Mater
Жанр: Документальный
Продолжительность: ~00:44:00 на фильм
Перевод: Студийный (одноголосый закадровый)
Доп. инфо о переводе: студия "Велес" - Дмитрий Стрелков
Русские субтитры: нет
Описание: Йеллоустоунский парк - заповедник, в котором суровые условия природы формируют красивейшие ландшафты и драматические ситуации в жизни животных.
Сэмпл: http:// СПАМ
Тип релиза: HDTV 1080i
Контейнер: MKV
Видео: 1920x1080 (16:9 PAL HD), H.264 [AVC] Level 4, 25 fps, Interlaced, ABR 7500 kbps
Аудио: Russian (VO "Велес"), MPEG1-Layer 2, 48000 Hz, 2.0ch Stereo, CBR 192 kbps
Список серий
  • Лето гризли
  • Ледяной рубеж
  • Волчица
    MediaInfo
GeneralUnique ID : 59033781961489693296127432732181936212 (0x2C697E2AD402EB8C4A5672ECF2363854)Complete name : Холодный рубеж.mkvFormat : MatroskaFormat version : Version 4 / Version 2File size : 2.34 GiBDuration : 44mn 3sOverall bit rate : 7 615 KbpsEncoded date : UTC 2016-06-30 19:38:50Writing application : mkvmerge v9.2.0 ('Photograph') 64bitWriting library : libebml v1.3.3 libmatroska v1.4.4DURATION : 00:45:16.968000000NUMBER_OF_FRAMES : 110133NUMBER_OF_BYTES : 63436608_STATISTICS_WRITING_APP : mkvmerge v9.2.0 ('Photograph') 64bit_STATISTICS_WRITING_DATE_UTC : 2016-06-30 19:38:50_STATISTICS_TAGS : BPS DURATION NUMBER_OF_FRAMES NUMBER_OF_BYTES
VideoID : 1Format : AVCFormat/Info : Advanced Video CodecFormat profile : [email protected] settings, CABAC : YesFormat settings, ReFrames : 4 framesFormat settings, GOP : M=4, N=32Codec ID : V_MPEG4/ISO/AVCDuration : 44mn 3sBit rate : 7 272 KbpsWidth : 1 920 pixelsHeight : 1 080 pixelsDisplay aspect ratio : 16:9Frame rate mode : ConstantFrame rate : 25.000 fpsStandard : ComponentColor space : YUVChroma subsampling : 4:2:0Bit depth : 8 bitsScan type : InterlacedScan order : Top Field FirstBits/(Pixel*Frame) : 0.140Stream size : 2.24 GiB (95%)Default : YesForced : NoColor primaries : BT.709Transfer characteristics : BT.709Matrix coefficients : BT.709
AudioID : 2Format : MPEG AudioFormat version : Version 1Format profile : Layer 2Mode : Joint stereoMode extension : Intensity Stereo MS StereoCodec ID : A_MPEG/L2Codec ID/Hint : MP2Duration : 44mn 3sBit rate mode : ConstantBit rate : 192 KbpsChannel(s) : 2 channelsSampling rate : 48.0 KHzCompression mode : LossyDelay relative to video : 3msStream size : 60.5 MiB (3%)Title : Russian VO (студия "Велес") - Дмитрий СтрелковLanguage : RussianDefault : YesForced : No
Скриншоты

If you like the topic, please click share to help develop our site.

To download the file disable ad blocking, and reload the page.

disable adblock How to disable ad blocking?

Download by magnet link 7.57 GB Download Torrent

Login using:

Similar topics



   
Current time is: 16-Jul 21:53 :: All times are UTC + 3