Звёздный Путь: Энтерпрайз Сезон 2 / Star Trek: Enterprise
Страна: США
Продолжительность серии: ~ 40 мин
Год выпуска: 2001
Жанр: Боевик / Приключения / Фантастика
Перевод: Профессиональный (многоголосый, закадровый)
Субтитры: английские
Режиссёр: Дэвид Ливингстон, Мишель Веджэр
В ролях:
Скотт Бакула, Джон Биллингсли, Джолин Блэлок, Доминик Китинг, Энтони Монтгомери, Линда Парк, Коннор Трайннир, Джон Флек, Вон Армстронг, Гари Грэхэм
Описание:
Вот уже сто лет прошло с того момента, как человечество впервые преодолело световой барьер и установило первый контакт с инопланетной расой. И вот настал тот день, когда самый совершенный корабль звездолет флота «Энтерпрайз», оснащённый самым быстрым двигателем «Варп-5», был спущен с верфей и стал первым посланником человечества в дальнем космосе. Находясь под командованием капитана Джонатана Арчера, ему предстоит сделать множество научных открытий, вступить в контакт с новыми, неизвестными цивилизациями, не раз спасти Землю от гибели и в конечном итоге положить начало Объединенной Федерации Планет…
Качество: HD-Encode 720p
Формат: mkv
Видео кодек: h264
Аудио кодек: AC3
Видео: 1280x720, h.264, ~24 fps, ~4 Mbps, 0.175 bpx
Аудио 1 (русская): AC3 5.1, 448 kbit/s, 48k
Аудио 2 (английская): Aс3 5.1, 448 kbit/s (from NTSC R1 DVD)
Скриншоты MediaInfo
General
Complete name : Star.Trek.Enterprise 2x01 Shockwave, Pt. 2 .H264.DD5.1.Rus.Eng.mkv
Format : Matroska
File size : 1.46 GiB
Duration : 43mn 2s
Overall bit rate : 4 851 Kbps
Encoded date : UTC 2011-06-15 08:59:30
Writing application : mkvmerge v3.2.0 ('Beginnings') built on Feb 12 2010 16:46:17
Writing library : libebml v0.7.9 + libmatroska v0.8.1
Video
ID : 1
Format : AVC
Format/Info : Advanced Video Codec
Format profile : [email protected]
Format settings, CABAC : No
Format settings, ReFrames : 2 frames
Muxing mode : Container [email protected]
Codec ID : V_MPEG4/ISO/AVC
Duration : 43mn 0s
Bit rate : 3 859 Kbps
Width : 1 280 pixels
Height : 720 pixels
Display aspect ratio : 16:9
Frame rate : 23.976 fps
Resolution : 24 bits
Colorimetry : 4:2:0
Scan type : Progressive
Bits/(Pixel*Frame) : 0.175
Stream size : 1.16 GiB (79%)
Language : English
Color primaries : BT.709-5, BT.1361, IEC 61966-2-4, SMPTE RP177
Transfer characteristics : BT.709-5, BT.1361
Matrix coefficients : BT.709-5, BT.1361, IEC 61966-2-4 709, SMPTE RP177
Audio #1
ID : 2
Format : AC-3
Format/Info : Audio Coding 3
Codec ID : A_AC3
Duration : 43mn 2s
Bit rate mode : Constant
Bit rate : 448 Kbps
Channel(s) : 6 channels
Channel positions : Front: L C R, Surround: L R, LFE
Sampling rate : 48.0 KHz
Stream size : 138 MiB (9%)
Language : Russian
Audio #2
ID : 3
Format : AC-3
Format/Info : Audio Coding 3
Codec ID : A_AC3
Duration : 43mn 2s
Bit rate mode : Constant
Bit rate : 448 Kbps
Channel(s) : 6 channels
Channel positions : Front: L C R, Surround: L R, LFE
Sampling rate : 48.0 KHz
Stream size : 138 MiB (9%)
Language : English

If you like the topic, please click share to help develop our site.

To download the file disable ad blocking, and reload the page.

disable adblock How to disable ad blocking?

Download by magnet link 38.94 GB Download Torrent

Login using:

Similar topics



   
Current time is: 16-Jul 21:51 :: All times are UTC + 3