Rendering Interiors with V-Ray for Maya
Год выпуска: 01/03/2011
Производитель: Digital Tutors
Сайт производителя: http://www.digitaltutors.com
Продолжительность: 2 hrs. 16 min.
Тип раздаваемого материала: Видеоурок
Язык: Английский
Описание: In this series of lessons we will explore the various techniques and some helpful tips for setting up realistic lighting for an interior scene using V-Ray for Maya.
The ability to set up realistic lighting for an interior environment is a skill that is highly sought after in the CG industry. Problems to overcome, arise with every digital set. So we will be covering a lot of very common issues that you will want to be aware of such as using V-Ray lights to create physically-accurate light behavior, achieving realistic light bouncing in our scene, optimizing our render speed, using V-Ray materials to simulate a variety of surface types, using an external image-editing application to add some finishing touches to our renders, as well as many other tips, tricks, and techniques that will help you become a stronger, more effective rendering artist in V-Ray.
Содержание
1. Introduction and project overview
3. Setting up the primary light source for our scene
5. Finishing the rough lighting of our scene
7. Refining the V-Ray floor material for our room
9. Creating materials and textures for the pillows
11. Adding materials to the table in our room
13. Rendering Maya Smooth Mesh objects in V-Ray
15. Making final quality adjustments to our render
2. Establishing proper scene scale when rendering
4. Adding secondary illumination sources to our scene
6. Adding V-Ray materials to the floor and ceiling
8. Applying V-Ray materials to the chair in our scene
10. Adding materials to the rug and artwork in our room
12. Creating materials for the oranges in our room
14. Adding translucency to the curtains
16. Using Photoshop to add final touches to our render
Формат видео: flv
Видео: Flash Video 4 784x656
Аудио: MPEG Audio Layer 3 44100Hz mono 96kbps
Скриншоты Тех.Информация
Video
Format : VP6
Codec ID : 4
Duration : 9mn 35s
Bit rate : 1 000 Kbps
Width : 782 pixels
Height : 646 pixels
Display aspect ratio : 1.211
Frame rate mode : Constant
Frame rate : 15.000 fps
Bit depth : 8 bits
Bits/(Pixel*Frame) : 0.132
Stream size : 68.6 MiB
Audio
Format : MPEG Audio
Format version : Version 1
Format profile : Layer 3
Codec ID : 2
Codec ID/Hint : MP3
Duration : 9mn 35s
Bit rate mode : Constant
Bit rate : 96.0 Kbps
Channel(s) : 1 channel
Sampling rate : 44.1 KHz
Compression mode : Lossy
Stream size : 6.58 MiB (15%)
Доп. информация: Software: Maya 2011 and higher V-Ray for Maya 1.5 SP1 and higher

To download the file disable ad blocking, and reload the page.

disable adblock How to disable ad blocking?

Download by magnet link 638 MB Download Torrent

Login using:

Similar topics



   
Current time is: 15-Oct 21:00 :: All times are UTC ± 0