Информация о фильме
Название: Я и Катерина
Оригинальное название: Io e Caterina
Год выхода: 1980
Жанр: Комедия
Режиссер: Альберто Сорди
В ролях: Альберто Сорди, Эдвиж Фенек, Катрин Спаак, Валерия Валери Россано Брацци, Уго Болонья, Данута Хавалек, Энди Миллер, Лаура Франчи, Элиза Майнарди, Виктория Дзинни, Фиорелла Буффа, Сьюзэн Ширер, Сандра Мантенья, Андреа Гнекко, Даниела Кароли
О фильме:
Богатый предприниматель, устав от вечных ссор с женой, решает жить без женщин, увольняя даже экономку. Взамен он покупает робота-горничную по имени Катерина. Но та вскоре влюбляется в хозяина, начиная изводить его своей ревностью...

Страна: Франция, Италия
Студия: Carthago Films S.a.r.l., Italian International Film, Radiotelevisione Italiana
Продолжительность: 01:45:49
Перевод: Профессиональный многоголосый
Файл
Кодек: h.264
Качество: DVDRip
Видео: MPEG-4 AVC, 720x392, 5200 Кбит/с, 25.000 кадр/с
Звук:
Аудио #1: Русский ( AC3, 2ch, 256 Кбит/с, 48.0 KHz) Профессиональный (многоголосый закадровый) Intra Communications [100ТВ]
Аудио #2: Итальянский ( AC3, 6ch, 448 Кбит/с, 48.0 KHz)
Субтитры: итальянские
Семпл

Скриншоты

MediaInfo

General
Unique ID : 243071706229263687912517405816338236223 (0xB6DDE8635AA7EE2193CA0274722FC33F)
Complete name : Io.e.Caterina.1980.DVDRip-AVC.mkv
Format : Matroska
Format version : Version 4 / Version 2
File size : 4.37 GiB
Duration : 1 h 45 min
Overall bit rate : 5 907 kb/s
Encoded date : UTC 2017-03-17 10:07:09
Writing application : mkvmerge v7.8.0 ('River Man') 64bit built on Mar 27 2015 16:31:37
Writing library : libebml v1.3.1 + libmatroska v1.4.2
Cover : Yes
Attachments : cover.jpg
Video
ID : 1
Format : AVC
Format/Info : Advanced Video Codec
Format profile : High@L4.1
Format settings, CABAC : Yes
Format settings, ReFrames : 12 frames
Codec ID : V_MPEG4/ISO/AVC
Duration : 1 h 45 min
Bit rate : 5 200 kb/s
Width : 720 pixels
Height : 392 pixels
Display aspect ratio : 1.85:1
Frame rate mode : Constant
Frame rate : 25.000 FPS
Color space : YUV
Chroma subsampling : 4:2:0
Bit depth : 8 bits
Scan type : Progressive
Bits/(Pixel*Frame) : 0.737
Stream size : 3.84 GiB (88%)
Title : Video-H264
Writing library : x264 core 146 r2538 121396c
Encoding settings : cabac=1 / ref=12 / deblock=1:-3:-3 / analyse=0x3:0x133 / me=umh / subme=11 / psy=1 / psy_rd=1.00:0.00 / mixed_ref=1 / me_range=32 / chroma_me=1 / trellis=2 / 8x8dct=1 / cqm=0 / deadzone=21,11 / fast_pskip=1 / chroma_qp_offset=-2 / threads=6 / lookahead_threads=1 / sliced_threads=0 / nr=0 / decimate=1 / interlaced=0 / bluray_compat=0 / constrained_intra=0 / bframes=12 / b_pyramid=2 / b_adapt=2 / b_bias=0 / direct=3 / weightb=1 / open_gop=0 / weightp=2 / keyint=250 / keyint_min=23 / scenecut=40 / intra_refresh=0 / rc_lookahead=70 / rc=2pass / mbtree=1 / bitrate=5200 / ratetol=1.0 / qcomp=0.60 / qpmin=0 / qpmax=69 / qpstep=4 / cplxblur=20.0 / qblur=0.5 / ip_ratio=1.40 / aq=1:1.00
Language : Italian
Default : Yes
Forced : No
Audio #1
ID : 2
Format : AC-3
Format/Info : Audio Coding 3
Mode extension : CM (complete main)
Format settings, Endianness : Big
Codec ID : A_AC3
Duration : 1 h 45 min
Bit rate mode : Constant
Bit rate : 256 kb/s
Channel(s) : 2 channels
Channel positions : Front: L R
Sampling rate : 48.0 kHz
Frame rate : 31.250 FPS (1536 spf)
Bit depth : 16 bits
Compression mode : Lossy
Stream size : 194 MiB (4%)
Title : Профессиональный (многоголосый закадровый) Intra Communications [100ТВ]
Language : Russian
Default : Yes
Forced : No
Audio #2
ID : 3
Format : AC-3
Format/Info : Audio Coding 3
Mode extension : CM (complete main)
Format settings, Endianness : Big
Codec ID : A_AC3
Duration : 1 h 45 min
Bit rate mode : Constant
Bit rate : 448 kb/s
Channel(s) : 6 channels
Channel positions : Front: L C R, Side: L R, LFE
Sampling rate : 48.0 kHz
Frame rate : 31.250 FPS (1536 spf)
Bit depth : 16 bits
Compression mode : Lossy
Stream size : 339 MiB (8%)
Title : Audio
Language : Italian
Default : No
Forced : No
Text
ID : 4
Format : UTF-8
Codec ID : S_TEXT/UTF8
Codec ID/Info : UTF-8 Plain Text
Duration : 1 h 40 min
Bit rate : 68 b/s
Count of elements : 1259
Stream size : 50.5 KiB (0%)
Language : Italian
Default : No
Forced : No

To download the file disable ad blocking, and reload the page.

disable adblock How to disable ad blocking?

Download by magnet link 4.37 GB Download Torrent

Login using:

Similar topics



   
Current time is: 23-Oct 07:23 :: All times are UTC ± 0