Пещера / Cave
Страна: Норвегия
Студия: FilmBros
Жанр: Триллер, приключения
Год выпуска: 2016
Продолжительность: 01:16:50
Перевод: Любительский (многоголосый закадровый) AzOnFilm
Cубтитры: Русские, норвежские, английские
Оригинальная аудиодорожка: Норвежский
Режиссер: Хенрик Мартин Дальсбаккен / Henrik Martin Dahlsbakken
В ролях: Хэйди Тойни, Мэдс Сьёгард Петтерсен, Беньямин Хельстад, Ингар Хельге Гимле
Описание: Шарлотта, Адриан и Виктор когда-то вместе служили в одном батальоне. Поэтому они привыкли преодолевать трудности и бросать вызов опасности. Из всей троицы в армии остался лишь Виктор. Но они снова собираются вместе, чтобы преодолеть новую преграду — неизведанную систему пещер. Несколько лет назад там погибли двое финских водолазов. Тело одного из них так и не было найдено. После этого трагического случая пещера была закрыта. Однако троица лучших друзей не обращает на это внимания. Они хотят исследовать пещеру и найти выход на противоположной стороне горы. Их цель — стать первыми, кому удастся сделать это и выбраться живыми. Казалось бы, что они все предусмотрели. Но то, с чем им предстоит столкнуть глубоко под землей, повергло их в ужас…
Дополнительная информация:
Автор релиза -
Заказ и выкуп перевода - ylnian & Ко
Исходник - Cave 2016 1080p BluRay DD5.1 x264-EBoLA
За сборку дороги спасибо Crime0572
За русские субтитры спасибо AzOnFilm
Синхронизация и редактирование субтитров - ylnian
Сохранены главы с BD - 10 шт.
Релиз без рекламы!


Сэмпл: https://yadi.sk/i/nzr6E78s3GD2RT
Качество видео: BDRip 1080p
Формат видео: MKV
Видео: MPEG-4 AVC, 1920x804 (2,40:1), 25.000 fps, 11200 kbps, 0.289 bit/pixel
Аудио 1: Русский DTS 5.1 / 48 kHz / 1509 kbps / 24-bit
Аудио 2: Норвежский DTS 5.1 / 48 kHz / 1509 kbps / 24-bit
Формат субтитров: softsub (SRT)
MediaInfo
x264 [info]: frame I:674 Avg QP:11.40 size:136504x264 [info]: frame P:25684 Avg QP:12.83 size: 87295x264 [info]: frame B:88913 Avg QP:14.18 size: 46124
ОбщееУникальный идентификатор : 179055464334746490275871685267327711070 (0x86B4D3FAE0C666DCB68634B2A3AE775E)Полное имя : D:\Cave.2016.BDRip.1080p-ylnian.mkvФормат : MatroskaВерсия формата : Version 4 / Version 2Размер файла : 7,62 ГбайтПродолжительность : 1 ч. 16 м.Общий поток : 14,2 Мбит/секНазвание фильма : Cave.2016.BDRip.1080p-ylnianДата кодирования : UTC 2017-03-21 02:57:25Программа кодирования : mkvmerge v9.9.0 ('Pick Up') 64bitБиблиотека кодирования : libebml v1.3.4 + libmatroska v1.4.5
ВидеоИдентификатор : 1Формат : AVCФормат/Информация : Advanced Video CodecПрофиль формата : High@L4.1Параметр CABAC формата : ДаПараметр ReFrames формата : 5 кадровИдентификатор кодека : V_MPEG4/ISO/AVCПродолжительность : 1 ч. 16 м.Битрейт : 11,2 Мбит/секШирина : 1920 пикселейВысота : 804 пикселяСоотношение сторон : 2,40:1Режим частоты кадров : ПостоянныйЧастота кадров : 25,000 кадров/секЦветовое пространство : YUVСубдискретизация насыщенности : 4:2:0Битовая глубина : 8 битТип развёртки : ПрогрессивнаяБит/(Пиксели*Кадры) : 0.289Размер потока : 5,99 Гбайт (79%)Заголовок : Cave 2016 1080p BluRay DD5.1 x264-EBoLAБиблиотека кодирования : x264 core 148 r2744 b97ae06Настройки программы : cabac=1 / ref=5 / deblock=1:-3:-3 / analyse=0x3:0x133 / me=umh / subme=10 / psy=1 / psy_rd=1.00:0.00 / mixed_ref=1 / me_range=24 / chroma_me=1 / trellis=2 / 8x8dct=1 / cqm=0 / deadzone=21,11 / fast_pskip=0 / chroma_qp_offset=-2 / threads=18 / lookahead_threads=3 / sliced_threads=0 / nr=0 / decimate=1 / interlaced=0 / bluray_compat=0 / constrained_intra=0 / bframes=8 / b_pyramid=2 / b_adapt=2 / b_bias=0 / direct=3 / weightb=1 / open_gop=0 / weightp=2 / keyint=250 / keyint_min=25 / scenecut=40 / intra_refresh=0 / rc_lookahead=60 / rc=crf / mbtree=0 / crf=16.8 / qcomp=0.60 / qpmin=0 / qpmax=69 / qpstep=4 / vbv_maxrate=62500 / vbv_bufsize=78125 / crf_max=0.0 / nal_hrd=none / filler=0 / ip_ratio=1.30 / pb_ratio=1.20 / aq=1:0.80Язык : NorwegianDefault : ДаForced : Да
Аудио #1Идентификатор : 2Формат : DTSФормат/Информация : Digital Theater SystemsРежим : 16Параметр Endianness формата : BigИдентификатор кодека : A_DTSПродолжительность : 1 ч. 16 м.Вид битрейта : ПостоянныйБитрейт : 1509 Кбит/секКаналы : 6 каналовРасположение каналов : Front: L C R, Side: L R, LFEЧастота : 48,0 КГцЧастота кадров : 93,750 кадра/сек (512 spf)Битовая глубина : 24 битМетод сжатия : С потерямиРазмер потока : 829 Мбайт (11%)Заголовок : MVO (DTS 5.1 1509 kbps)Язык : RussianDefault : ДаForced : Да
Аудио #2Идентификатор : 3Формат : DTSФормат/Информация : Digital Theater SystemsРежим : 16Параметр Endianness формата : BigИдентификатор кодека : A_DTSПродолжительность : 1 ч. 16 м.Вид битрейта : ПостоянныйБитрейт : 1509 Кбит/секКаналы : 6 каналовРасположение каналов : Front: L C R, Side: L R, LFEЧастота : 48,0 КГцЧастота кадров : 93,750 кадра/сек (512 spf)Битовая глубина : 24 битМетод сжатия : С потерямиРазмер потока : 829 Мбайт (11%)Заголовок : DTS 5.1 1509 kbpsЯзык : NorwegianDefault : НетForced : Нет
Текст #1Идентификатор : 4Формат : UTF-8Идентификатор кодека : S_TEXT/UTF8Идентификатор кодека/Информация : UTF-8 Plain TextПродолжительность : 1 ч. 11 м.Битрейт : 28 бит/секElementCount : 499Размер потока : 14,8 Кбайт (0%)Язык : RussianDefault : НетForced : Нет
Текст #2Идентификатор : 5Формат : UTF-8Идентификатор кодека : S_TEXT/UTF8Идентификатор кодека/Информация : UTF-8 Plain TextПродолжительность : 1 ч. 11 м.Битрейт : 22 бит/секElementCount : 467Размер потока : 12,0 Кбайт (0%)Язык : NorwegianDefault : НетForced : Нет
Текст #3Идентификатор : 6Формат : UTF-8Идентификатор кодека : S_TEXT/UTF8Идентификатор кодека/Информация : UTF-8 Plain TextПродолжительность : 1 ч. 11 м.Битрейт : 20 бит/секElementCount : 465Размер потока : 10,7 Кбайт (0%)Язык : EnglishDefault : НетForced : Нет
Меню00:00:00.000 : en:00:00:00.00000:07:51.960 : en:00:07:51.96000:15:57.960 : en:00:15:57.96000:27:45.200 : en:00:27:45.20000:38:22.680 : en:00:38:22.68000:50:16.040 : en:00:50:16.04000:57:01.240 : en:00:57:01.24001:05:58.720 : en:01:05:58.72001:10:22.160 : en:01:10:22.16001:13:00.560 : en:01:13:00.560
Скриншот c названием фильма Скриншоты

To download the file disable ad blocking, and reload the page.

disable adblock How to disable ad blocking?

Download by magnet link 7.62 GB Download Torrent

Login using:

Similar topics



   
Current time is: 16-Oct 07:40 :: All times are UTC ± 0