Пещера / Cave
Страна: Норвегия
Студия: FilmBros
Жанр: Триллер, приключения
Год выпуска: 2016
Продолжительность: 01:16:50
Перевод: Любительский (многоголосый закадровый) AzOnFilm
Cубтитры: Русские, норвежские, английские
Оригинальная аудиодорожка: Норвежский
Режиссер: Хенрик Мартин Дальсбаккен / Henrik Martin Dahlsbakken
В ролях: Хэйди Тойни, Мэдс Сьёгард Петтерсен, Беньямин Хельстад, Ингар Хельге Гимле
Описание: Шарлотта, Адриан и Виктор когда-то вместе служили в одном батальоне. Поэтому они привыкли преодолевать трудности и бросать вызов опасности. Из всей троицы в армии остался лишь Виктор. Но они снова собираются вместе, чтобы преодолеть новую преграду — неизведанную систему пещер. Несколько лет назад там погибли двое финских водолазов. Тело одного из них так и не было найдено. После этого трагического случая пещера была закрыта. Однако троица лучших друзей не обращает на это внимания. Они хотят исследовать пещеру и найти выход на противоположной стороне горы. Их цель — стать первыми, кому удастся сделать это и выбраться живыми. Казалось бы, что они все предусмотрели. Но то, с чем им предстоит столкнуть глубоко под землей, повергло их в ужас…
Дополнительная информация:
Автор релиза -
Заказ и выкуп перевода - ylnian & Ко
Исходник- Cave.2016.720p.BluRay.DD5.1.x264-VietHD
За сборку дороги спасибо Crime0572
За русские субтитры спасибо AzOnFilm
Синхронизация и редактирование субтитров - ylnian
Заказ и выкуп перевода - ylnian & Ко
Релиз без рекламы!


Сэмпл: https://yadi.sk/i/8ZiHehsi3GCzQG
Качество видео: BDRip 720p
Формат видео: MKV
Видео: MPEG-4 AVC, 1280x536 (2,40:1), 25.000 fps, 5324 kbps, 0.310 bit/pixel
Аудио 1: Русский AC3, 48000 Гц, 6ch, 640 kbps
Аудио 2: Норвежский AC3, 48000 Гц, 6ch, 640 kbps
Формат субтитров: softsub (SRT)
MediaInfo
x264 [info]: frame I:693 Avg QP:10.82 size: 89136x264 [info]: frame P:23953 Avg QP:12.79 size: 48349x264 [info]: frame B:90625 Avg QP:13.79 size: 20399x264 [info]: consecutive B-frames: 2.3% 2.7% 8.3% 13.4% 13.7% 35.2% 9.9% 3.6% 5.5% 2.9% 2.5%encoded 115271 frames, 8.19 fps, 5324.06 kb/s, duration 3:54:35.15
ОбщееУникальный идентификатор : 254313794337760011323411272662515589037 (0xBF530E202F0106F9976959C35F1E1FAD)Полное имя : D:\Cave.2016.BDRip.720p-ylnian.mkvФормат : MatroskaВерсия формата : Version 4 / Version 2Размер файла : 3,55 ГбайтПродолжительность : 1 ч. 16 м.Общий поток : 6606 Кбит/секНазвание фильма : Cave.2016.BDRip.720p-ylnianДата кодирования : UTC 2017-03-21 02:53:11Программа кодирования : mkvmerge v9.9.0 ('Pick Up') 64bitБиблиотека кодирования : libebml v1.3.4 + libmatroska v1.4.5
ВидеоИдентификатор : 1Формат : AVCФормат/Информация : Advanced Video CodecПрофиль формата : High@L4.1Параметр CABAC формата : ДаПараметр ReFrames формата : 12 кадровИдентификатор кодека : V_MPEG4/ISO/AVCПродолжительность : 1 ч. 16 м.Битрейт : 5324 Кбит/секШирина : 1280 пикселейВысота : 536 пикселейСоотношение сторон : 2,40:1Режим частоты кадров : ПостоянныйЧастота кадров : 25,000 кадров/секЦветовое пространство : YUVСубдискретизация насыщенности : 4:2:0Битовая глубина : 8 битТип развёртки : ПрогрессивнаяБит/(Пиксели*Кадры) : 0.310Размер потока : 2,86 Гбайт (81%)Заголовок : Cave.2016.720p.BluRay.DD5.1.x264-VietHDБиблиотека кодирования : x264 core 148 r2744kMod b97ae06Настройки программы : cabac=1 / ref=12 / deblock=1:-3:-3 / analyse=0x3:0x133 / me=umh / subme=10 / psy=1 / fade_compensate=0.00 / psy_rd=1.00:0.00 / mixed_ref=1 / me_range=24 / chroma_me=1 / trellis=2 / 8x8dct=1 / cqm=0 / deadzone=21,11 / fast_pskip=0 / chroma_qp_offset=-2 / threads=17 / lookahead_threads=4 / sliced_threads=0 / nr=0 / decimate=0 / interlaced=0 / bluray_compat=0 / constrained_intra=0 / bframes=10 / b_pyramid=2 / b_adapt=2 / b_bias=0 / direct=3 / weightb=1 / open_gop=0 / weightp=2 / keyint=250 / keyint_min=25 / scenecut=40 / intra_refresh=0 / rc_lookahead=60 / rc=crf / mbtree=0 / crf=16.0000 / qcomp=0.65 / qpmin=0 / qpmax=69 / qpstep=4 / vbv_maxrate=62500 / vbv_bufsize=78125 / crf_max=0.0 / nal_hrd=none / filler=0 / ip_ratio=1.30 / pb_ratio=1.20 / aq=3:0.80Язык : NorwegianDefault : ДаForced : ДаЦветовой диапазон : LimitedКоэффициенты матрицы : BT.709
Аудио #1Идентификатор : 2Формат : AC-3Формат/Информация : Audio Coding 3Параметр Endianness формата : BigИдентификатор кодека : A_AC3Продолжительность : 1 ч. 16 м.Вид битрейта : ПостоянныйБитрейт : 640 Кбит/секКаналы : 6 каналовРасположение каналов : Front: L C R, Side: L R, LFEЧастота : 48,0 КГцЧастота кадров : 31,250 кадров/сек (1536 spf)Битовая глубина : 16 битМетод сжатия : С потерямиРазмер потока : 352 Мбайт (10%)Заголовок : MVO (AC3 5.1 640 kbps)Язык : RussianServiceKind/String : Complete MainDefault : ДаForced : Да
Аудио #2Идентификатор : 3Формат : AC-3Формат/Информация : Audio Coding 3Параметр Endianness формата : BigИдентификатор кодека : A_AC3Продолжительность : 1 ч. 16 м.Вид битрейта : ПостоянныйБитрейт : 640 Кбит/секКаналы : 6 каналовРасположение каналов : Front: L C R, Side: L R, LFEЧастота : 48,0 КГцЧастота кадров : 31,250 кадров/сек (1536 spf)Битовая глубина : 16 битМетод сжатия : С потерямиРазмер потока : 352 Мбайт (10%)Заголовок : AC3 5.1 640 kbpsЯзык : NorwegianServiceKind/String : Complete MainDefault : НетForced : Нет
Текст #1Идентификатор : 4Формат : UTF-8Идентификатор кодека : S_TEXT/UTF8Идентификатор кодека/Информация : UTF-8 Plain TextПродолжительность : 1 ч. 11 м.Битрейт : 28 бит/секElementCount : 499Размер потока : 14,8 Кбайт (0%)Язык : RussianDefault : НетForced : Нет
Текст #2Идентификатор : 5Формат : UTF-8Идентификатор кодека : S_TEXT/UTF8Идентификатор кодека/Информация : UTF-8 Plain TextПродолжительность : 1 ч. 11 м.Битрейт : 22 бит/секElementCount : 467Размер потока : 12,0 Кбайт (0%)Язык : NorwegianDefault : НетForced : Нет
Текст #3Идентификатор : 6Формат : UTF-8Идентификатор кодека : S_TEXT/UTF8Идентификатор кодека/Информация : UTF-8 Plain TextПродолжительность : 1 ч. 11 м.Битрейт : 20 бит/секElementCount : 465Размер потока : 10,7 Кбайт (0%)Язык : EnglishDefault : НетForced : Нет
Меню00:00:00.000 : en:00:00:00.00000:07:51.960 : en:00:07:51.96000:15:57.960 : en:00:15:57.96000:27:45.200 : en:00:27:45.20000:38:22.680 : en:00:38:22.68000:50:16.040 : en:00:50:16.04000:57:01.240 : en:00:57:01.24001:05:58.720 : en:01:05:58.72001:10:22.160 : en:01:10:22.16001:13:00.560 : en:01:13:00.560
Скриншот c названием фильма Скриншоты

To download the file disable ad blocking, and reload the page.

disable adblock How to disable ad blocking?

Download by magnet link 3.55 GB Download Torrent

Login using:

Загрузка...

Similar topics



   
Current time is: 16-Dec 06:05 :: All times are UTC + 3